Торренты   
 
 


Лучший стрелок 3D / Top Gun 3D [1986 (2013), BDrip, half1080p, Anamorph SideBySide]

Рейтинг 3D:
29 голосов
6.4
Рейтинг фильма:
32 голосов
6.5
 
Вы должны быть авторизированы,
чтобы ставить оценки


Лучший стрелок 3D / Top Gun 3D
Год выпуска: 1986 (2013)
Страна: Paramount Pictures (США)
Жанр: боевик, драма, мелодрама
Продолжительность: 01:51:04
Перевод: Профессиональный (многоголосый, закадровый), 6 авторских одноголосых закадровых (отдельными файлами)
Режиссер: Тони Скотт
В ролях: Том Круз, Келли МакГиллис, Вэл Килмер, Энтони Эдвардс, Том Скеррит, Майкл Айронсайд, Джон Стокуэлл, Бэрри Табб, Рик Россович, Тим Роббинс
Описание: Искусный пилот истребителя Ф-14, курсант элитного училища ВМС США, летающий как бог и руководимый как в жизни, так и в небе инстинктами, а не разумом, влюбляется в инструктора училища, астрофизика, которая долгое время отказывает ему во взаимности. Уступит ли она его белозубой улыбке?
Качество: BDrip by Alexman©
Формат 3D: Anamorph SideBySide
Порядок ракурсов: Левый ракурс первый
Видео: AVC / 23,976 fps / 1920х1080p / 19.9 Mbps
Аудио 1: Русский (MVO - "Супербит") / AC3 / 48 KHz / 5.1 ch / 448 Kbps
Аудио 2: Английский оригинальный / AC3 / 48 KHz / 5.1 ch / 640 Kbps
Дополнительные русские аудиодорожки (отдельно):
2. AC3 / 48 KHz / 5.1 ch / 448 Kbps / (А. Гаврилов)
3. AC3 / 48 KHz / 5.1 ch / 448 Kbps / (Ю. Живов)
4. AC3 / 48 KHz / 2 ch / 192 Kbps / (Л. Володарский)
5. AC3 / 48 KHz / 2 ch / 192 Kbps / (В. Горчаков)
6. AC3 / 48 KHz / 2 ch / 192 Kbps / (М. Иванов)
7. AC3 / 48 KHz / 2 ch / 192 Kbps / (А. Михалев)
Субтитры: русские, полные, вшитые .srt

MediaInfo

General
Unique ID : 171483165300109559179742759898842219575 (0x810274D02414B99A92E3E6F72B314437)
Complete name : Top Gun [Лучший стрелок] (1986) MVO hSbS 1080p by Alexman©.mkv
Format : Matroska
Format version : Version 4 / Version 2
File size : 16.6 GiB
Duration : 1h 51mn
Overall bit rate : 21.5 Mbps
Movie name : Top Gun [Лучший стрелок] (1986) MVO hSbS 1080p by Alexman©
Encoded date : UTC 2013-02-12 08:35:36
Writing application : mkvmerge v6.0.0 ('Coming Up For Air') built on Jan 20 2013 09:52:00
Writing library : libebml v1.3.0 + libmatroska v1.4.0
Video
ID : 1
Format : AVC
Format/Info : Advanced Video Codec
Format profile : High@L4.1
Format settings, CABAC : Yes
Format settings, ReFrames : 4 frames
Codec ID : V_MPEG4/ISO/AVC
Duration : 1h 51mn
Bit rate : 19.9 Mbps
Width : 1 920 pixels
Height : 1 080 pixels
Display aspect ratio : 16:9
Frame rate mode : Constant
Frame rate : 23.976 fps
Color space : YUV
Chroma subsampling : 4:2:0
Bit depth : 8 bits
Scan type : Progressive
Bits/(Pixel*Frame) : 0.401
Stream size : 15.5 GiB (93%)
Title : Top Gun
Writing library : x264 core 129 r2245 bc13772
Encoding settings : cabac=1 / ref=4 / deblock=1:-3:-3 / analyse=0x3:0x113 / me=umh / subme=9 / psy=1 / psy_rd=1.00:0.15 / mixed_ref=1 / me_range=32 / chroma_me=1 / trellis=2 / 8x8dct=1 / cqm=0 / deadzone=21,11 / fast_pskip=1 / chroma_qp_offset=-3 / threads=4 / lookahead_threads=1 / sliced_threads=0 / nr=0 / decimate=1 / interlaced=0 / bluray_compat=0 / constrained_intra=0 / bframes=4 / b_pyramid=2 / b_adapt=2 / b_bias=0 / direct=3 / weightb=1 / open_gop=0 / weightp=2 / keyint=250 / keyint_min=23 / scenecut=40 / intra_refresh=0 / rc_lookahead=60 / rc=crf / mbtree=1 / crf=19.0 / qcomp=0.60 / qpmin=0 / qpmax=69 / qpstep=4 / vbv_maxrate=40000 / vbv_bufsize=40000 / crf_max=0.0 / nal_hrd=none / ip_ratio=1.40 / aq=1:0.70
Language : English
Default : Yes
Forced : No
Audio #1
ID : 2
Format : AC-3
Format/Info : Audio Coding 3
Mode extension : CM (complete main)
Format settings, Endianness : Big
Codec ID : A_AC3
Duration : 1h 51mn
Bit rate mode : Constant
Bit rate : 448 Kbps
Channel(s) : 6 channels
Channel positions : Front: L C R, Side: L R, LFE
Sampling rate : 48.0 KHz
Bit depth : 16 bits
Compression mode : Lossy
Stream size : 356 MiB (2%)
Title : MVO - "Супербит"
Language : Russian
Default : Yes
Forced : Yes
Audio #2
ID : 3
Format : AC-3
Format/Info : Audio Coding 3
Mode extension : CM (complete main)
Format settings, Endianness : Big
Codec ID : A_AC3
Duration : 1h 51mn
Bit rate mode : Constant
Bit rate : 640 Kbps
Channel(s) : 6 channels
Channel positions : Front: L C R, Side: L R, LFE
Sampling rate : 48.0 KHz
Bit depth : 16 bits
Compression mode : Lossy
Stream size : 508 MiB (3%)
Title : English original
Language : English
Default : No
Forced : No
Text
ID : 4
Format : UTF-8
Codec ID : S_TEXT/UTF8
Codec ID/Info : UTF-8 Plain Text
Title : Русские полные
Language : Russian
Default : No
Forced : No

Анимированные скриншоты для оценки 3Д-эффекта






Проверено на ТВ Samsung 40C7000 и Samsung 46D7000
Остальные раздачи этого фильма (4)
Благодарности релизеру (28)

Торрент:

Статус:

Размер:

Зарегистрирован   [ 2013-02-12 13:29 ]

проверено

17.92 GB

 
 Мнение о фильме (17)





Вот посмотрел фильм и получил удовольствие в двойне. Оказывается есть качественные фильмы, хоть и почти моих годов, которые я не видел. Супер, люблю тематику авиации, а ещё и с духом прошлого времени, которое отображается в музыке и других деталях.. Мне очень понравился! И другое то, как фильм сконвертирован в 3D.. не всякие фильмы снятые в 3D можно сравнить с этим.. вылетов конечно не было, умеренная глубина - в самый раз.
Недавно скачал "Президент Линкольн: Охотник на вампиров", так меня и пяти минут не хватило посмотреть - плюнул и решил смотреть обычное, а смотря этот как-то забыл что в очках.. даже плёночный "песок" придает некую изюмину.
Спасибо большое Alexman`у!! побуду на раздаче..
 

Alexman, Большое спасибо за ретро. Как и в 86м раздражает американский апломб - мы самые красные перцы из всех перцев, но сам фильм шикарен, настоящий художественный, сделанный славным Голливудом, не то, что нынешний ширпотреб. Качество на LG превосходное, зерно еле заметно, объем комфортен и достаточен для ХФ, не для цирка.
Однозначно в коллекцию, распечатал второй "терабайтник".
Спасибо.
 

3D хорошее, но в глаз ничего не влетает, и не может по определению.
 

фильм хороший! вот бы Перл Харбор в 3D вот то фильм)) !!
 

Спасибо, фильм отличный!
 
девочка на облаке Профиль 15-Фев-2013 10:01

Чья озвучка лучше?
 

Сам фильм хорош, Но 3D здесь явно лишнее. Плоско всё.
 

Dmitriyx, 3D хорошее для ХФ, но не для цирка. Но в глаз ничего не влетает, и не может по определению.
 

bboydenc, точно
 

фильм норм! я бы ещё фильм Спасти рядового Райна посмотрел в 3Д.
 

Фильм хороший, но 3d слабое
 

Фильм нормальный, а 3D никакое.
 

Фильм смотрел в молодости. По нынешним меркам... так себе. Сказать что очарован 3D эффектами - было бы много.
 

Чем фильм хорош что пиндосы типо самые крутые ну эт ток в кино они наши миги так сбивать могут на деле обратное*
 

Раздайте кто-нибудь, уже неделю скачиваю!
 

И тоже неделю скачиваю этот торрент с разных страничек. Раздайте пожалуйста.
 

chirk153, да куда там... эх