Торренты   
 
 

 

Сайлент Хилл 2 / Silent Hill: Revelation [2012, BDrip, half1080p, Anamorph SideBySide]

Рейтинг 3D:
113 голосов
7.9
Рейтинг фильма:
110 голосов
6.1
 
Вы должны быть авторизированы,
чтобы ставить оценки


Сайлент Хилл 2 / Silent Hill: Revelation
Год выпуска: 2012
Страна: Франция, США, Канада
Студия: Anibrain Digital Technologies, Davis-Films, Konami, Silent Hill 2 DCP
Жанр: ужасы, триллер, детектив
Продолжительность: 01:34:44
Перевод: Профессиональный (полное дублирование)
Режиссер: Майкл Дж. Бассетт
В ролях: Эделейд Клеменс, Кит Харингтон, Дебора Кара Ангер, Мартин Донован, Малкольм МакДауэлл, Кэрри-Энн Мосс, Шон Бин, Рада Митчелл, Роберто Кампанелла, Эрин Питт
Роли дублировали: Лиза Мартиросова, Николай Быстров, Елена Харитонова, Олег Форостенко, Елена Соловьева и др.
Описание: Хизер терзается ночными кошмарами с одиннадцатилетнего возраста и вынуждена со своим отцом постоянно менять место жительства, скрываясь от таинственных сил. Накануне своего восемнадцатого дня рождения Хизер, вернувшись домой, обнаруживает, что её отец исчез. Единственное, что она нашла дома — нарисованный на стене оккультный символ с надписью «отправляйся в Сайлент Хилл».
Качество: BDrip by Alexman©
Формат 3D: Anamorph SideBySide
Порядок ракурсов: Левый ракурс первый
Видео: AVC / 23,976 fps / 1920х1080p / 8 164 Kbps
Аудио 1: Русский дублированный / AC3 / 48 KHz / 5.1 ch / 640 Kbps
Аудио 2: Английский оригинальный / AC3 / 48 KHz / 5.1 ch / 640 Kbps
Субтитры: русские, полные, вшитые .srt

MediaInfo

General
Unique ID : 200252266992998915565208293122033665447 (0x96A72F09CD7149CDBABC405BF78D45A7)
Complete name : Silent Hill Revelation [Сайлент Хилл 2] (2012) DUB hSbS 1080p by Alexman©.mkv
Format : Matroska
Format version : Version 4 / Version 2
File size : 6.38 GiB
Duration : 1h 34mn
Overall bit rate : 9 636 Kbps
Movie name : Silent Hill Revelation [Сайлент Хилл 2] (2012) DUB hSbS 1080p by Alexman©
Encoded date : UTC 2013-02-14 05:04:04
Writing application : mkvmerge v6.0.0 ('Coming Up For Air') built on Jan 20 2013 09:52:00
Writing library : libebml v1.3.0 + libmatroska v1.4.0
Video
ID : 1
Format : AVC
Format/Info : Advanced Video Codec
Format profile : High@L4.1
Format settings, CABAC : Yes
Format settings, ReFrames : 4 frames
Codec ID : V_MPEG4/ISO/AVC
Duration : 1h 34mn
Bit rate : 8 164 Kbps
Width : 1 920 pixels
Height : 1 080 pixels
Display aspect ratio : 16:9
Frame rate mode : Constant
Frame rate : 23.976 fps
Color space : YUV
Chroma subsampling : 4:2:0
Bit depth : 8 bits
Scan type : Progressive
Bits/(Pixel*Frame) : 0.164
Stream size : 5.40 GiB (85%)
Title : Silent Hill Revelation
Writing library : x264 core 129 r2245 bc13772
Encoding settings : cabac=1 / ref=4 / deblock=1:-3:-3 / analyse=0x3:0x113 / me=umh / subme=9 / psy=1 / psy_rd=1.00:0.15 / mixed_ref=1 / me_range=32 / chroma_me=1 / trellis=2 / 8x8dct=1 / cqm=0 / deadzone=21,11 / fast_pskip=1 / chroma_qp_offset=-3 / threads=4 / lookahead_threads=1 / sliced_threads=0 / nr=0 / decimate=1 / interlaced=0 / bluray_compat=0 / constrained_intra=0 / bframes=4 / b_pyramid=2 / b_adapt=2 / b_bias=0 / direct=3 / weightb=1 / open_gop=0 / weightp=2 / keyint=250 / keyint_min=23 / scenecut=40 / intra_refresh=0 / rc_lookahead=60 / rc=crf / mbtree=1 / crf=17.0 / qcomp=0.60 / qpmin=0 / qpmax=69 / qpstep=4 / vbv_maxrate=40000 / vbv_bufsize=40000 / crf_max=0.0 / nal_hrd=none / ip_ratio=1.40 / aq=1:0.70
Language : English
Default : Yes
Forced : No
Audio #1
ID : 2
Format : AC-3
Format/Info : Audio Coding 3
Mode extension : CM (complete main)
Format settings, Endianness : Big
Codec ID : A_AC3
Duration : 1h 34mn
Bit rate mode : Constant
Bit rate : 640 Kbps
Channel(s) : 6 channels
Channel positions : Front: L C R, Side: L R, LFE
Sampling rate : 48.0 KHz
Bit depth : 16 bits
Compression mode : Lossy
Delay relative to video : 24ms
Stream size : 434 MiB (7%)
Title : Русский дублированный
Language : Russian
Default : Yes
Forced : Yes
Audio #2
ID : 3
Format : AC-3
Format/Info : Audio Coding 3
Mode extension : CM (complete main)
Format settings, Endianness : Big
Codec ID : A_AC3
Duration : 1h 34mn
Bit rate mode : Constant
Bit rate : 640 Kbps
Channel(s) : 6 channels
Channel positions : Front: L C R, Side: L R, LFE
Sampling rate : 48.0 KHz
Bit depth : 16 bits
Compression mode : Lossy
Delay relative to video : 24ms
Stream size : 434 MiB (7%)
Title : English original
Language : English
Default : No
Forced : No
Text
ID : 4
Format : UTF-8
Codec ID : S_TEXT/UTF8
Codec ID/Info : UTF-8 Plain Text
Title : Русские полные
Language : Russian
Default : No
Forced : No

Анимированные скриншоты для оценки 3Д-эффекта




Проверено на ТВ Samsung 40C7000 и Samsung 46D7000
Остальные раздачи этого фильма (3)
Благодарности релизеру (44)

Торрент:

Статус:

Размер:

Зарегистрирован   [ 2013-02-14 10:08 ]

проверено

6.38 GB

 
 Мнение о фильме (33)

Пред.  1, 2






3д в норме, особенно пепел летящий в начальных титрах. а фильм говно
 

Хорошее 3D но весьма несобранный сюжет. В общем ожидаемое от фильма я вполне получил.
Вот только есть вопросы по звуку: боковые каналы не дублированы - голосовой FX остался английским. Это лицензия или нет???
 

После этого фильма, первый Сайлент сразу кажется шедевром. А это – плевок в души фанатов серии игр. Адекватному зрителю вообще нечего искать в Хилле 2. На экране куча несвязных наивных не страшных сцен, которые хорошо смотрелись лишь в трейлере.
 

уррра! Фильм супер как первая часть так и вторая, 3D отличное, не понимаю как можно уснуть при просмотре. Моим домочадцам понравилось, спасибо)
 

От фильма ожидал большего.
Вторая часть совершенно не понравилась.
 

Фильм и 3D очень понравились! Спасибо!
 

ФИЛЬМ СУПЕРСКИЙ ОЧЕНЬ ПОНРАВИЛСЯ НУ КАЧЕСТВО ВИДЕО МОГЛИ НЕМНОГО БОЛЬШЕ СДЕЛАТЬ ВИДНЫ АРТЕФАКТЫ
 

Мне вот фильм очень понравился а 3D еще больше
 

Здесь срабатывает факт, че первая часть, значительно лучше последующей.
Фильм разочаровал.
Такое же разочарование, как после второго "Репортаж".
 

Мне понравился......
 

Хороший фильм, на твердую 4 из 5. Сделано качественно, хорошо переданы атмосфера и сюжет. Вылеты предсказуемы, но все равно хороши.
 

Редкое гавнецо. Такого еще поискать. Фильм не просто для идиотов, а для шизофреников сумеющих поймать задумку сумасшедших авторов.... Тот кто пишет - "фильм нормальный" - сходите к психиатору...
 

Я не любитель подобных сюжетов аля Стивен Кинг, но ради картинки стоит посмотреть! Особенно хочу выделить потрясающую звуковую дорожку!!! На серьезной многоканальной системе можно обосраться, уж простите :)
 

Страница 2 из 2

Пред.  1, 2