Торренты   
 
 

 

Обитель Зла: Проклятие / Resident Evil: Damnation (Макото Камия) [2012 г., BDRip, Full OverUnder]

Рейтинг 3D:
27 голосов
8.4
Рейтинг фильма:
29 голосов
7.4
 
Вы должны быть авторизированы,
чтобы ставить оценки


Обитель Зла: Проклятие / Resident Evil: Damnation
Год выпуска: 2012
Страна: Япония
Жанр: ужасы, фантастика
Продолжительность: 01:40:02
Перевод: Профессиональный (многоголосый, закадровый)
Режиссер: Макото Камия
В ролях: Кортни Тейлор (Ada Wong), Робин Сакс (Ataman), Кэролин Лоуренс (Ashley Graham), Мэттью Мерсер (Leon S. Kennedy), Уэнди Ли (Svetlana Belikova)
Описание: Продолжение популярной компьютерной анимации «Обитель зла: Вырождение». Леон Кеннеди отправляется в Восточную Европу на борьбу с монстрами — порождениями корпорации Амбрела. Больше монстров, больше пушек, больше экшена ...
Релиз группы:
Формат 3D: OverUnder BDRip, Full
Видео: AVC, High@L5.0, 1920x2160, 23.976 fps, 19,9 Мбит/сек
Аудио: Rus, AC-3, 6 каналов, 640 Кбит/сек, 48,0 КГц
Аудио: Eng, DTS, 6 каналов, 1510 Кбит/сек, 48,0 КГц
Аудио: Jpn, DTS, 6 каналов, 1510 Кбит/сек, 48,0 КГц

Скриншоты




MediaInfo

Общее
Уникальный идентификатор : 173634298371330576117837596289975447200 (0x82A0BFDCA66466C999EB248BFBDFEEA0)
Полное имя : E:\STEREO\Resident Evil_ Damnation_1080p_Rip by Dag13.mkv
Формат : Matroska
Версия формата : Version 2
Размер файла : 16,8 Гбайт
Продолжительность : 1 ч. 40 м.
Общий поток : 24,1 Мбит/сек
Дата кодирования : UTC 2013-02-14 15:11:59
Программа кодирования : mkvmerge v3.4.0 ('Rapunzel') сборка от May 15 2010 09:38:20
Библиотека кодирования : libebml v0.8.0 + libmatroska v0.9.0
Видео
Идентификатор : 1
Формат : AVC
Формат/Информация : Advanced Video Codec
Профиль формата : High@L5.0
Параметр CABAC формата : Да
Параметр ReFrames формата : 4 кадра
Идентификатор кодека : V_MPEG4/ISO/AVC
Продолжительность : 1 ч. 40 м.
Битрейт : 19,9 Мбит/сек
Ширина : 1920 пикселей
Высота : 2160 пикселей
Соотношение сторон : 0,889
Режим частоты кадров : Постоянный
Частота кадров : 23,976 кадра/сек
Цветовое пространство : YUV
Субдискретизация насыщенности : 4:2:0
Битовая глубина : 8 бит
Тип развёртки : Прогрессивная
Бит/(Пиксели*Кадры) : 0.201
Размер потока : 13,9 Гбайт (83%)
Заголовок : Rip by Dag13
Библиотека кодирования : x264 core 120 r2145 748fe16
Настройки программы : cabac=1 / ref=4 / deblock=1:-3:-3 / analyse=0x3:0x113 / me=umh / subme=9 / psy=1 / psy_rd=1.00:0.00 / mixed_ref=1 / me_range=16 / chroma_me=1 / trellis=2 / 8x8dct=1 / cqm=0 / deadzone=21,11 / fast_pskip=1 / chroma_qp_offset=-2 / threads=9 / sliced_threads=0 / nr=0 / decimate=1 / interlaced=0 / bluray_compat=0 / constrained_intra=0 / bframes=6 / b_pyramid=2 / b_adapt=2 / b_bias=0 / direct=3 / weightb=1 / open_gop=0 / weightp=2 / keyint=250 / keyint_min=23 / scenecut=40 / intra_refresh=0 / rc_lookahead=60 / rc=crf / mbtree=1 / crf=18.0 / qcomp=0.60 / qpmin=1 / qpmax=69 / qpstep=4 / ip_ratio=1.40 / aq=1:1.00
Язык : English
Default : Нет
Forced : Нет
Аудио #1
Идентификатор : 2
Формат : AC-3
Формат/Информация : Audio Coding 3
Расширение режима : CM (complete main)
Параметр Endianness формата : Big
Идентификатор кодека : A_AC3
Продолжительность : 1 ч. 40 м.
Вид битрейта : Постоянный
Битрейт : 640 Кбит/сек
Каналы : 6 каналов
Расположение каналов : Front: L C R, Side: L R, LFE
Частота : 48,0 КГц
Битовая глубина : 16 бит
Метод сжатия : С потерями
Размер потока : 458 Мбайт (3%)
Язык : Russian
Default : Да
Forced : Нет
Аудио #2
Идентификатор : 3
Формат : DTS
Формат/Информация : Digital Theater Systems
Идентификатор кодека : A_DTS
Продолжительность : 1 ч. 40 м.
Вид битрейта : Постоянный
Битрейт : 1510 Кбит/сек
Каналы : 6 каналов
Расположение каналов : Front: L C R, Side: L R, LFE
Частота : 48,0 КГц
Битовая глубина : 16 бит
Метод сжатия : С потерями
Размер потока : 1,05 Гбайт (6%)
Язык : English
Default : Нет
Forced : Нет
Аудио #3
Идентификатор : 4
Формат : DTS
Формат/Информация : Digital Theater Systems
Идентификатор кодека : A_DTS
Продолжительность : 1 ч. 40 м.
Вид битрейта : Постоянный
Битрейт : 1510 Кбит/сек
Каналы : 6 каналов
Расположение каналов : Front: L C R, Side: L R, LFE
Частота : 48,0 КГц
Битовая глубина : 16 бит
Метод сжатия : С потерями
Размер потока : 1,05 Гбайт (6%)
Язык : Japanese
Default : Нет
Forced : Нет
На встроенных ТВ-плейерах показывать НЕ будет!!!
Остальные раздачи этого фильма (2)
Благодарности релизеру (12)

Торрент:

Статус:

Размер:

Зарегистрирован   [ 2013-02-14 19:42 ]

проверено

16.83 GB

 
 Мнение о фильме (6)





Есть хорошие вылеты, правда картинка временами серенькая. 3Д хорошее. Посмотрели с удовольствием. Спасиб.
 

kanasyvrik, Раздача временная? ждать лучше качества?
От меня точно больше ничего не ждать.
 

Спасибо! Жду анаморф в таком же качестве, можно без японского и англ.
 

Скучноватый мульт, 3д норм.
 

Так себе , но посмотреть разок можно. Сильно не разочарует.
 

Фильм можно посмотреть один раз. Самый страшный момент когда зомбаки человека в своего превращают. Концовка напоминает Гулливер в стране великанов, совсем неправдоподобно.