Торренты   
 
 


Лучший стрелок в 3Д / Top Gun 3D (Тони Скотт / Tony Scott) [1986, Боевик, Мелодрама, Драма, BDrip, 1080p]Full OverUnder / Вертикальная стереопара

Рейтинг 3D:
29 голосов
6.4
Рейтинг фильма:
32 голосов
6.5
 
Вы должны быть авторизированы,
чтобы ставить оценки


Лучший стрелок / Top Gun
Год выпуска: 1986
Страна: США
Студия: Paramount Pictures
Жанр: Боевик, Мелодрама, Драма
Продолжительность: 01:51:04
Перевод: Профессиональный (многоголосый закадровый)
Русские субтитры: нет
Режиссер на русском: Тони Скотт
Режиссер на английском: Tony Scott
В ролях: Том Круз, Келли МакГиллис, Вэл Килмер, Энтони Эдвардс, Том Скеррит, Майкл Айронсайд, Джон Стокуэлл, Бэрри Табб, Рик Россович, Тим Роббинс
Описание: Искусный пилот истребителя Ф-14, курсант элитного училища ВМС США, летающий как бог и руководимый как в жизни, так и в небе инстинктами, а не разумом, влюбляется в инструктора училища, астрофизика, которая долгое время отказывает ему во взаимности. Уступит ли она его белозубой улыбке?
Дополнительная информация по релизу: Картинка очень зернистая
Сэмпл: http://www.sendspace.com/file/5xwi05
Качество: BDrip
Контейнер: MKV
Формат 3D: OverUnder / Вертикальная стереопара
Порядок ракурсов: левый ракурс первый
Видео кодек: x264
Аудио кодек: DTS
Видео: High@L5.0/AVC / 23,976 fps / 1920х1600 / 44.4 Mbps
Аудио: Русский / DTS / 48 KHz / 6.1 ch / 1510 Kbps
Аудио 2: Украинский / AC3 / 48 KHz / 2.0 ch / 192 Kbps
Аудио 3: Английский / DTS / 48 KHz / 6.1 ch / 1510 Kbps
ВНИМАНИЕ ! На встроенных ТВ-плейерах работать не будет!!!
Железные плееры на которых воспроизводятся полные стереопары:Popcorn C-200 , Dune HD Smart D1 , Dune HD DUO , Dune HD Smart H1 , Dune HD Smart B1 , Dune HD Max , Dune HD TV-303D , Dune HD Base 3D

MediaInfo

General
Unique ID : 189132731283294513967893010737392884690 (0x8E49A399B686BC6EAEC3CEC14E459BD2)
Complete name : D:\закачки\Top Gun.Rip by SeRoGa00.mkv
Format : Matroska
Format version : Version 2
File size : 37.7 GiB
Duration : 1h 51mn
Overall bit rate mode : Variable
Overall bit rate : 48.6 Mbps
Encoded date : UTC 2013-02-16 14:59:29
Writing application : mkvmerge v3.4.0 ('Rapunzel') сборка от May 15 2010 09:38:20
Writing library : libebml v0.8.0 + libmatroska v0.9.0
Video
ID : 1
Format : AVC
Format/Info : Advanced Video Codec
Format profile : High@L5.0
Format settings, CABAC : Yes
Format settings, ReFrames : 4 frames
Codec ID : V_MPEG4/ISO/AVC
Duration : 1h 51mn
Bit rate : 44.4 Mbps
Width : 1 920 pixels
Height : 1 600 pixels
Display aspect ratio : 1.200
Frame rate : 23.976 fps
Color space : YUV
Chroma subsampling : 4:2:0
Bit depth : 8 bits
Scan type : Progressive
Bits/(Pixel*Frame) : 0.603
Stream size : 34.4 GiB (91%)
Title : Rip by SeRoGa00
Writing library : x264 core 128 r2216kMod 198a7ea
Encoding settings : cabac=1 / ref=4 / deblock=1:-2:-2 / analyse=0x3:0x113 / me=umh / subme=9 / psy=1 / fade_compensate=0.70 / psy_rd=1.00:0.15 / mixed_ref=1 / me_range=16 / chroma_me=1 / trellis=2 / 8x8dct=1 / cqm=0 / deadzone=21,11 / fast_pskip=1 / chroma_qp_offset=-3 / threads=6 / lookahead_threads=1 / sliced_threads=0 / nr=0 / decimate=1 / interlaced=0 / bluray_compat=0 / constrained_intra=0 / bframes=6 / b_pyramid=2 / b_adapt=2 / b_bias=0 / direct=3 / weightb=1 / open_gop=0 / weightp=2 / keyint=250 / keyint_min=23 / scenecut=40 / intra_refresh=0 / rc_lookahead=60 / rc=crf / mbtree=1 / crf=20.0000 / qcomp=0.80 / qpmin=10 / qpmax=69 / qpstep=4 / vbv_maxrate=40000 / vbv_bufsize=40000 / crf_max=0.0 / nal_hrd=none / ip_ratio=1.40 / aq=1:1.00
Language : English
Default : Yes
Forced : No
Audio #1
ID : 2
Format : DTS
Format/Info : Digital Theater Systems
Format profile : MA / Core
Codec ID : A_DTS
Duration : 1h 51mn
Bit rate mode : Variable
Bit rate : 1 510 Kbps
Channel(s) : 7 channels / 6 channels
Channel positions : Front: L C R, Side: L R, Back: C, LFE / Front: L C R, Side: L R, LFE
Sampling rate : 48.0 KHz
Bit depth : 24 bits
Compression mode : Lossless / Lossy
Stream size : 1.17 GiB (3%)
Language : Russian
Default : Yes
Forced : No
Audio #2
ID : 3
Format : AC-3
Format/Info : Audio Coding 3
Mode extension : CM (complete main)
Format settings, Endianness : Big
Codec ID : A_AC3
Duration : 1h 51mn
Bit rate mode : Constant
Bit rate : 192 Kbps
Channel(s) : 2 channels
Channel positions : Front: L R
Sampling rate : 48.0 KHz
Bit depth : 16 bits
Compression mode : Lossy
Stream size : 153 MiB (0%)
Language : Ukrainian
Default : No
Forced : No
Audio #3
ID : 4
Format : DTS
Format/Info : Digital Theater Systems
Format profile : MA / Core
Codec ID : A_DTS
Duration : 1h 51mn
Bit rate mode : Variable
Bit rate : 1 510 Kbps
Channel(s) : 7 channels / 6 channels
Channel positions : Front: L C R, Side: L R, Back: C, LFE / Front: L C R, Side: L R, LFE
Sampling rate : 48.0 KHz
Bit depth : 24 bits
Compression mode : Lossless / Lossy
Stream size : 1.17 GiB (3%)
Language : English
Default : No
Forced : No

Скриншоты


Остальные раздачи этого фильма (4)
Благодарности релизеру (4)

Торрент:

Статус:

Размер:

Зарегистрирован   [ 2013-02-16 20:59 ]

проверено

37.67 GB

 
 Мнение о фильме (17)





Вот посмотрел фильм и получил удовольствие в двойне. Оказывается есть качественные фильмы, хоть и почти моих годов, которые я не видел. Супер, люблю тематику авиации, а ещё и с духом прошлого времени, которое отображается в музыке и других деталях.. Мне очень понравился! И другое то, как фильм сконвертирован в 3D.. не всякие фильмы снятые в 3D можно сравнить с этим.. вылетов конечно не было, умеренная глубина - в самый раз.
Недавно скачал "Президент Линкольн: Охотник на вампиров", так меня и пяти минут не хватило посмотреть - плюнул и решил смотреть обычное, а смотря этот как-то забыл что в очках.. даже плёночный "песок" придает некую изюмину.
Спасибо большое Alexman`у!! побуду на раздаче..
 

Alexman, Большое спасибо за ретро. Как и в 86м раздражает американский апломб - мы самые красные перцы из всех перцев, но сам фильм шикарен, настоящий художественный, сделанный славным Голливудом, не то, что нынешний ширпотреб. Качество на LG превосходное, зерно еле заметно, объем комфортен и достаточен для ХФ, не для цирка.
Однозначно в коллекцию, распечатал второй "терабайтник".
Спасибо.
 

3D хорошее, но в глаз ничего не влетает, и не может по определению.
 

фильм хороший! вот бы Перл Харбор в 3D вот то фильм)) !!
 

Спасибо, фильм отличный!
 
девочка на облаке Профиль 15-Фев-2013 10:01

Чья озвучка лучше?
 

Сам фильм хорош, Но 3D здесь явно лишнее. Плоско всё.
 

Dmitriyx, 3D хорошее для ХФ, но не для цирка. Но в глаз ничего не влетает, и не может по определению.
 

bboydenc, точно
 

фильм норм! я бы ещё фильм Спасти рядового Райна посмотрел в 3Д.
 

Фильм хороший, но 3d слабое
 

Фильм нормальный, а 3D никакое.
 

Фильм смотрел в молодости. По нынешним меркам... так себе. Сказать что очарован 3D эффектами - было бы много.
 

Чем фильм хорош что пиндосы типо самые крутые ну эт ток в кино они наши миги так сбивать могут на деле обратное*
 

Раздайте кто-нибудь, уже неделю скачиваю!
 

И тоже неделю скачиваю этот торрент с разных страничек. Раздайте пожалуйста.
 

chirk153, да куда там... эх