Торренты   
 
 

 

Бумажный роман / Paperman (Джон Карс) [2012 г., Anamorph OverUnder]

Рейтинг 3D:
6 голосов
7.5
Рейтинг фильма:
6 голосов
8.8
 
Вы должны быть авторизированы,
чтобы ставить оценки


Бумажный роман / Paperman
Год выпуска: 2012
Страна: США
Жанр: короткометражный, мультфильм
Продолжительность: 00:06:29
Перевод: Не требуется
Режиссер: Джон Карс
Описание: В своей дебютной режиссерской работе «Paperman» Джон Карс представит зрителям уникальную новую технологию, сочетающую компьютерную и рисованную анимацию. Короткометражный анимационный фильм, исполненный в минималистском черно-белом стиле, повествует об одиноком молодом человеке в Нью-Йорке 50-х годов, судьба которого меняется после случайной встречи с красивой незнакомкой. Уже не надеясь увидеть девушку своей мечты вновь, он случайно замечает ее из своего офиса в окне небоскреба напротив. Он хочет предложить девушке свое сердце, но в его распоряжении лишь воображение и несколько листов бумаги, чтобы привлечь ее внимание, и он даже не догадывается, какой сюрприз приготовила для него судьба.
Релиз группы:
Формат 3D: Anamorph OverUnder
Видео: AVC, High@L4.0, 1920x1080, 23.976 fps, 8250 Кбит/сек
Аудио: Eng, AC-3, 6 каналов, 640 Кбит/сек, 48,0 КГц

Скриншоты


MediaInfo

Общее
Уникальный идентификатор : 176611092410305003069790993676577546436 (0x84DE0F23B19F78268AB72101F2D020C4)
Полное имя : E:\STEREO CROP\Paperman_Anamorph _Rip by Dag13.mkv
Формат : Matroska
Версия формата : Version 2
Размер файла : 421 Мбайт
Продолжительность : 6 м. 29 с.
Общий поток : 9070 Кбит/сек
Дата кодирования : UTC 2013-02-17 19:09:14
Программа кодирования : mkvmerge v3.4.0 ('Rapunzel') сборка от May 15 2010 09:38:20
Библиотека кодирования : libebml v0.8.0 + libmatroska v0.9.0
Видео
Идентификатор : 1
Формат : AVC
Формат/Информация : Advanced Video Codec
Профиль формата : High@L4.0
Параметр CABAC формата : Да
Параметр ReFrames формата : 4 кадра
Идентификатор кодека : V_MPEG4/ISO/AVC
Продолжительность : 6 м. 29 с.
Битрейт : 8250 Кбит/сек
Ширина : 1920 пикселей
Высота : 1080 пикселей
Соотношение сторон : 16:9
Режим частоты кадров : Постоянный
Частота кадров : 23,976 кадра/сек
Цветовое пространство : YUV
Субдискретизация насыщенности : 4:2:0
Битовая глубина : 8 бит
Тип развёртки : Прогрессивная
Бит/(Пиксели*Кадры) : 0.166
Размер потока : 383 Мбайт (91%)
Заголовок : Rip by Dag13
Библиотека кодирования : x264 core 120 r2145 748fe16
Настройки программы : cabac=1 / ref=4 / deblock=1:-3:-3 / analyse=0x3:0x113 / me=umh / subme=9 / psy=1 / psy_rd=1.00:0.00 / mixed_ref=1 / me_range=16 / chroma_me=1 / trellis=2 / 8x8dct=1 / cqm=0 / deadzone=21,11 / fast_pskip=1 / chroma_qp_offset=-2 / threads=9 / sliced_threads=0 / nr=0 / decimate=1 / interlaced=0 / bluray_compat=0 / constrained_intra=0 / bframes=6 / b_pyramid=2 / b_adapt=2 / b_bias=0 / direct=3 / weightb=1 / open_gop=0 / weightp=2 / keyint=250 / keyint_min=23 / scenecut=40 / intra_refresh=0 / rc_lookahead=60 / rc=crf / mbtree=1 / crf=18.0 / qcomp=0.60 / qpmin=1 / qpmax=69 / qpstep=4 / ip_ratio=1.40 / aq=1:1.00
Язык : English
Default : Нет
Forced : Нет
Аудио
Идентификатор : 2
Формат : AC-3
Формат/Информация : Audio Coding 3
Расширение режима : CM (complete main)
Параметр Endianness формата : Big
Идентификатор кодека : A_AC3
Продолжительность : 6 м. 29 с.
Вид битрейта : Постоянный
Битрейт : 640 Кбит/сек
Каналы : 6 каналов
Расположение каналов : Front: L C R, Side: L R, LFE
Частота : 48,0 КГц
Битовая глубина : 16 бит
Метод сжатия : С потерями
Размер потока : 29,7 Мбайт (7%)
Язык : English
Default : Да
Forced : Нет
Благодарности релизеру (42)

Торрент:

Статус:

Размер:

Зарегистрирован   [ 2013-02-17 23:20 ]

проверено

421 MB