Торренты   
 
 

 

Ральф / Wreck-It Ralph [2012, BDrip, half1080p, Anamorph SideBySide]

Рейтинг 3D:
108 голосов
8.3
Рейтинг фильма:
106 голосов
8.7
 
Вы должны быть авторизированы,
чтобы ставить оценки


© Закрыто правообладателем
Год выпуска: 2012
Страна: США (Walt Disney Animation Studios)
Жанр: мультфильм, комедия, семейный
Продолжительность: 01:41:14
Перевод: Профессиональный (полное дублирование)
Режиссер: Рич Мур
Роли озвучивали:
Джон Си Райли, Джейн Линч, Деннис Хейсбёрт, Сара Силверман, Стефани Скотт, Брэндон Т. Джексон, Джек МакБрайер, Скайлар Эстин, Скотт Менвилль, Джек Эйнджел и др.
Роли дублировали:
Станислав Дужников, Александр Гудков, Наталия Медведева, Регина Щукина, Валентин Морозов, Станислав Концевич, Александр Аравушкин, Алексей Макрецкий, Олег Куликович, Алексей Макрецкий, Александр Лушин, Дмитрий Стрелков, Александр Ноткин,
Описание:
Ральф — второстепенный персонаж восьмибитной компьютерной игры, и ему надоело находиться в тени главного героя, мастера на все руки Феликса, который всегда появляется, чтобы «исправить» ситуацию! После тридцати лет добросовестной работы в роли злодея, в течение которых все похвалы выпадали на долю Феликса, Ральф больше не хочет быть плохим.
Он решает отправиться в путешествие по аркадным играм разных жанров, чтобы доказать всем, что и он тоже может быть героем. На своем пути Ральф встречает героев разных игр — хладнокровную сержанта Калхун из игры Hero’s Duty, оберегающую планету от нашествия инопланетных захватчиков, и сладкую на вид, но острую на язычок Сластену фон Дю, чье существование в гоночном симуляторе Sugar Rush внезапно оказывается под угрозой. Наконец-то Ральфу выпадает шанс показать, что он умеет не только разрушать!
Качество: BDrip by Alexman©
Формат 3D: Anamorph SideBySide / Горизонтальная анаморфная стереопара
Порядок ракурсов: левый ракурс первый
Видео: MPEG4 AVC, 8 167 Kbps, 1920x1080, 23.976 кадр/с
Аудио №1: Русский дублированный перевод / AC3 / 48 KHz / 5.1 ch / 640 Kbps
Аудио №2: Украинский дублированный перевод / AC3 / 48 KHz / 5.1 ch / 640 Kbps
Аудио №3: Английский оригинальный / AC3 / 48 KHz / 5.1 ch / 640 Kbps
Субтитры: Русские полные, русские форсированные, украинские полные, украинские форсированные.

MediaInfo

General
Unique ID : 205351519043915009910208031745220999373 (0x9A7D43933950588BB3A82A5627FEF8CD)
Complete name : Wreck-It Ralph [Ральф] (2012) DUB hSbS 1080p by Alexman©.mkv
Format : Matroska
Format version : Version 4 / Version 2
File size : 7.27 GiB
Duration : 1h 41mn
Overall bit rate : 10.3 Mbps
Movie name : Rise of the Guardians [Хранители снов]
Encoded date : UTC 2013-03-04 06:57:01
Writing application : mkvmerge v6.1.0 ('Old Devil') built on Mar 2 2013 14:32:37
Writing library : libebml v1.3.0 + libmatroska v1.4.0
Video
ID : 1
Format : AVC
Format/Info : Advanced Video Codec
Format profile : High@L4.1
Format settings, CABAC : Yes
Format settings, ReFrames : 4 frames
Codec ID : V_MPEG4/ISO/AVC
Duration : 1h 41mn
Bit rate : 8 154 Kbps
Width : 1 920 pixels
Height : 1 080 pixels
Display aspect ratio : 16:9
Frame rate mode : Constant
Frame rate : 23.976 fps
Color space : YUV
Chroma subsampling : 4:2:0
Bit depth : 8 bits
Scan type : Progressive
Bits/(Pixel*Frame) : 0.164
Stream size : 5.77 GiB (79%)
Title : Wreck-It Ralph [Ральф]
Writing library : x264 core 129 r2245 bc13772
Encoding settings : cabac=1 / ref=4 / deblock=1:-3:-3 / analyse=0x3:0x133 / me=umh / subme=9 / psy=1 / psy_rd=1.00:0.00 / mixed_ref=1 / me_range=32 / chroma_me=1 / trellis=2 / 8x8dct=1 / cqm=0 / deadzone=21,11 / fast_pskip=1 / chroma_qp_offset=-2 / threads=6 / lookahead_threads=1 / sliced_threads=0 / nr=0 / decimate=1 / interlaced=0 / bluray_compat=0 / constrained_intra=0 / bframes=4 / b_pyramid=2 / b_adapt=1 / b_bias=0 / direct=3 / weightb=1 / open_gop=0 / weightp=2 / keyint=240 / keyint_min=23 / scenecut=40 / intra_refresh=0 / rc_lookahead=60 / rc=crf / mbtree=1 / crf=16.0 / qcomp=0.60 / qpmin=0 / qpmax=69 / qpstep=4 / ip_ratio=1.40 / aq=1:1.00
Language : English
Default : Yes
Forced : Yes
Audio #1
ID : 2
Format : AC-3
Format/Info : Audio Coding 3
Mode extension : CM (complete main)
Format settings, Endianness : Big
Codec ID : A_AC3
Duration : 1h 41mn
Bit rate mode : Constant
Bit rate : 640 Kbps
Channel(s) : 6 channels
Channel positions : Front: L C R, Side: L R, LFE
Sampling rate : 48.0 KHz
Bit depth : 16 bits
Compression mode : Lossy
Stream size : 463 MiB (6%)
Title : Русский дублированный
Language : Russian
Default : Yes
Forced : Yes
Audio #2
ID : 3
Format : AC-3
Format/Info : Audio Coding 3
Mode extension : CM (complete main)
Format settings, Endianness : Big
Codec ID : A_AC3
Duration : 1h 41mn
Bit rate mode : Constant
Bit rate : 640 Kbps
Channel(s) : 6 channels
Channel positions : Front: L C R, Side: L R, LFE
Sampling rate : 48.0 KHz
Bit depth : 16 bits
Compression mode : Lossy
Stream size : 463 MiB (6%)
Title : Украинский дублированный
Language : Ukrainian
Default : No
Forced : No
Audio #3
ID : 4
Format : AC-3
Format/Info : Audio Coding 3
Mode extension : CM (complete main)
Format settings, Endianness : Big
Codec ID : A_AC3
Duration : 1h 41mn
Bit rate mode : Constant
Bit rate : 640 Kbps
Channel(s) : 6 channels
Channel positions : Front: L C R, Side: L R, LFE
Sampling rate : 48.0 KHz
Bit depth : 16 bits
Compression mode : Lossy
Stream size : 463 MiB (6%)
Title : Английский оригинальный
Language : English
Default : No
Forced : No
Text #1
ID : 5
Format : UTF-8
Codec ID : S_TEXT/UTF8
Codec ID/Info : UTF-8 Plain Text
Title : Русские форсированные
Language : Russian
Default : Yes
Forced : Yes
Text #2
ID : 6
Format : UTF-8
Codec ID : S_TEXT/UTF8
Codec ID/Info : UTF-8 Plain Text
Title : Русские полные
Language : Russian
Default : No
Forced : No
Text #3
ID : 7
Format : UTF-8
Codec ID : S_TEXT/UTF8
Codec ID/Info : UTF-8 Plain Text
Title : Украинские форсированные
Language : Ukrainian
Default : No
Forced : No
Text #4
ID : 8
Format : UTF-8
Codec ID : S_TEXT/UTF8
Codec ID/Info : UTF-8 Plain Text
Title : Украинские полные
Language : Ukrainian
Default : No
Forced : No

Анимированные скриншоты для оценки 3Д-эффекта




Релиз заменён 04.03.2013г. Желающие могут перекачать торрент.
Причины замены:
1. Русский дубляж заменен на лицензионный
2. Добавлен украинский дубляж
3. Добавлен комплект русских и украинских субтитров.
Проверено на ТВ Samsung 40C7000 и Samsung 46D7000
Остальные раздачи этого фильма (4)
Благодарности релизеру (48)

Торрент:

Статус:

Размер:

Зарегистрирован   [ 2013-03-04 11:21 ]

© закрыто правообладателем

7.27 GB

 
 Мнение о фильме (27)

1, 2  След.






Жесть, добрый мульт, с офигеным сюжетом, побольшеб таких!!!
 

Мультик офигенный, спасибо за выкладку!!!
 

Чумавой мультик просто СУПЕР
 

Очень .
 

Мульт суперский и сюжет оч даже))) рэкомедную!!!!!
 

Мультик нормальный. но 3D могли бы сделать и пошикарней. Глубина есть, а вот вылеты практически отсутствуют.
 

Согласен, мульт шикарный!
 

Суперский мульт!!!
 

one sec.. А Гудков не в дубляже разве за Феликса озвучивает??
и ещё.. я, конечно, улыбаюсь, но в голове не укладывается, что людям нужен украинский дубляж.. в Украине (на 80% говорящей по-русски) законодательно навязан исключительно украинский язык в кинотеатрах, за исключением картин, снятых изначально на русском {там, кстати отдельный прикол - укр.субтитры, которые для 3Д версий, конечно, никто делать в Украине не умеет, и в "Ржевском прот. Нап." - все титры ужасно двоились и портили картину}..
Если честно - именно это стимулировало к приобретению 3Д техники.. т.к. есть возможно бесплатно ходить в роскошный сверхсовременный 3Д к/т с новейшим проектором Barco и экраном коэфф.отр.2.6(!!!) НО. стоит один раз услышать, как Скала Джонсон на укр.язе поёт "Its A wonderfull world", или,что ещё жёще - как Шварц на нём приказы отдаёт, чтобы перестать врубаться в сюжет вовсе - "ривняйсь...- стрУнко! крОком руш!" - ребята, i'm off
 

Коментарии не врут)смотрел с удовольствием
 

обалденный мульт!!! особенно в 3Д
 

Мульт супер, и сюжет класс, в конце чуть не расплакался от радости и 3д в норме , советую посмотреть)))))
 

Мне 40 лет,а мульт понравился даже больше чем детям!
 

lizard76, вы свое мнение про украинский язык попридержите. Потому что существует огромная обойма релизов, в которых русский дубляж сосет у украинского. Вас никто на украинском смотреть не заставляет, а вы не лишайте выбора тех, кому это может понадобиться.
Про 80% русскоязычных в Украине - отдельный лол.
 

никого я лишить выбора не могу, - это ведь не мой релиз)
а вот меня (и огромное кол-во людей) лишили возможности смотреть кино в к/т на русском
- мнения на то и мнения, чтоб ими делиться
 

Спасибо Dag13 за мульт!!!
 

lizard76, нет, отсутствие альтернативы - другой вопрос. Я вообще поддерживаю идею о том, чтобы были сеансы с двумя языками. Но говорить о том, что украинский дубляж никому не нужен и низкокачествен, - несправедливо
 

Спасибо! Весёлый, интересный мультик!
 

побольшего бы таких ))) понравился
 

понравилрсь
 
Виталий Цыганов Профиль 16-Апр-2013 20:57

Страница 1 из 2

1, 2  След.