Торренты   
 
 

 

Ральф / Wreck-It Ralph (Рич Мур) [2012 г., BDRip, Full OverUnder]

Рейтинг 3D:
108 голосов
8.3
Рейтинг фильма:
106 голосов
8.7
 
Вы должны быть авторизированы,
чтобы ставить оценки


© Закрыто правообладателем
Год выпуска: 2012
Страна: США
Жанр: мультфильм, комедия, семейный
Продолжительность: 01:41:14
Перевод: Профессиональный (полное дублирование) ("Лицензия")
Режиссер: Рич Мур
В ролях: Джон Си Райли, Джейн Линч, Деннис Хейсбёрт, Сара Силверман, Стефани Скотт, Брэндон Т. Джексон, Джек МакБрайер, Скайлар Эстин, Скотт Менвилль, Джек Эйнджел и др.
Описание: Ральф — второстепенный персонаж восьмибитной компьютерной игры, и ему надоело находиться в тени главного героя, мастера на все руки Феликса, который всегда появляется, чтобы «исправить» ситуацию! После тридцати лет добросовестной работы в роли злодея, в течение которых все похвалы выпадали на долю Феликса, Ральф больше не хочет быть плохим.
Он решает отправиться в путешествие по аркадным играм разных жанров, чтобы доказать всем, что и он тоже может быть героем. На своем пути Ральф встречает героев разных игр — хладнокровную сержанта Калхун из игры Hero’s Duty, оберегающую планету от нашествия инопланетных захватчиков, и сладкую на вид, но острую на язычок Сластену фон Дю, чье существование в гоночном симуляторе Sugar Rush внезапно оказывается под угрозой. Наконец-то Ральфу выпадает шанс показать, что он умеет не только разрушать!
Релиз группы:
Формат 3D: OverUnder BDRip, Full
Видео: AVC, High@L5.0, 1920x1600, 23.976 fps, 11,4 Мбит/сек
Аудио: Rus,AC-3, 6 каналов, 640 Кбит/сек, 48,0 КГц
Аудио: Ukr, AC-3, 6 каналов, 640 Кбит/сек, 48,0 КГц
Аудио: Eng, DTS, 6 каналов, 1510 Кбит/сек, 48,0 КГц

Скриншоты




MediaInfo

Общее
Уникальный идентификатор : 178690621514495671615961922945092060580 (0x866E8FD71431C16592AFA821791E85A4)
Полное имя : E:\STEREO\Wrеck-It Rаlph_1080p_Rip by Dag13.mkv
Формат : Matroska
Версия формата : Version 2
Размер файла : 9,49 Гбайт
Продолжительность : 1 ч. 41 м.
Общий поток : 13,4 Мбит/сек
Дата кодирования : UTC 2013-02-20 15:19:42
Программа кодирования : mkvmerge v3.4.0 ('Rapunzel') сборка от May 15 2010 09:38:20
Библиотека кодирования : libebml v0.8.0 + libmatroska v0.9.0
Видео
Идентификатор : 1
Формат : AVC
Формат/Информация : Advanced Video Codec
Профиль формата : High@L5.0
Параметр CABAC формата : Да
Параметр ReFrames формата : 4 кадра
Идентификатор кодека : V_MPEG4/ISO/AVC
Битрейт : 11,4 Мбит/сек
Ширина : 1920 пикселей
Высота : 1600 пикселей
Соотношение сторон : 1,200
Режим частоты кадров : Переменный
Частота кадров в оригинале : 23,976 кадра/сек
Цветовое пространство : YUV
Субдискретизация насыщенности : 4:2:0
Битовая глубина : 8 бит
Тип развёртки : Прогрессивная
Заголовок : Rip by Dag13
Библиотека кодирования : x264 core 120 r2145 748fe16
Настройки программы : cabac=1 / ref=4 / deblock=1:-3:-3 / analyse=0x3:0x113 / me=umh / subme=9 / psy=1 / psy_rd=1.00:0.00 / mixed_ref=1 / me_range=16 / chroma_me=1 / trellis=2 / 8x8dct=1 / cqm=0 / deadzone=21,11 / fast_pskip=1 / chroma_qp_offset=-2 / threads=9 / sliced_threads=0 / nr=0 / decimate=1 / interlaced=0 / bluray_compat=0 / constrained_intra=0 / bframes=6 / b_pyramid=2 / b_adapt=2 / b_bias=0 / direct=3 / weightb=1 / open_gop=0 / weightp=2 / keyint=250 / keyint_min=23 / scenecut=40 / intra_refresh=0 / rc_lookahead=60 / rc=crf / mbtree=1 / crf=18.0 / qcomp=0.60 / qpmin=1 / qpmax=69 / qpstep=4 / ip_ratio=1.40 / aq=1:1.00
Язык : English
Default : Нет
Forced : Нет
Аудио #1
Идентификатор : 2
Формат : AC-3
Формат/Информация : Audio Coding 3
Расширение режима : CM (complete main)
Параметр Endianness формата : Big
Идентификатор кодека : A_AC3
Продолжительность : 1 ч. 41 м.
Вид битрейта : Постоянный
Битрейт : 256 Кбит/сек
Каналы : 2 канала
Расположение каналов : Front: L R
Частота : 48,0 КГц
Битовая глубина : 16 бит
Метод сжатия : С потерями
Размер потока : 185 Мбайт (2%)
Язык : Russian
Default : Да
Forced : Нет
Аудио #2
Идентификатор : 3
Формат : DTS
Формат/Информация : Digital Theater Systems
Идентификатор кодека : A_DTS
Продолжительность : 1 ч. 41 м.
Вид битрейта : Постоянный
Битрейт : 1510 Кбит/сек
Каналы : 6 каналов
Расположение каналов : Front: L C R, Side: L R, LFE
Частота : 48,0 КГц
Битовая глубина : 24 бит
Метод сжатия : С потерями
Размер потока : 1,07 Гбайт (11%)
Язык : English
Default : Нет
Forced : Нет
На встроенных ТВ-плейерах показывать НЕ будет!!!Внимание, торрент обновлен, русская дорожка заменена на лицензию. Добавлен украинский дубляж.
Остальные раздачи этого фильма (4)
Благодарности релизеру (14)

Торрент:

Статус:

Размер:

Зарегистрирован   [ 2013-03-03 12:24 ]

© закрыто правообладателем

10.21 GB

 
 Мнение о фильме (27)

1, 2  След.






Жесть, добрый мульт, с офигеным сюжетом, побольшеб таких!!!
 

Мультик офигенный, спасибо за выкладку!!!
 

Чумавой мультик просто СУПЕР
 

Очень .
 

Мульт суперский и сюжет оч даже))) рэкомедную!!!!!
 

Мультик нормальный. но 3D могли бы сделать и пошикарней. Глубина есть, а вот вылеты практически отсутствуют.
 

Согласен, мульт шикарный!
 

Суперский мульт!!!
 

one sec.. А Гудков не в дубляже разве за Феликса озвучивает??
и ещё.. я, конечно, улыбаюсь, но в голове не укладывается, что людям нужен украинский дубляж.. в Украине (на 80% говорящей по-русски) законодательно навязан исключительно украинский язык в кинотеатрах, за исключением картин, снятых изначально на русском {там, кстати отдельный прикол - укр.субтитры, которые для 3Д версий, конечно, никто делать в Украине не умеет, и в "Ржевском прот. Нап." - все титры ужасно двоились и портили картину}..
Если честно - именно это стимулировало к приобретению 3Д техники.. т.к. есть возможно бесплатно ходить в роскошный сверхсовременный 3Д к/т с новейшим проектором Barco и экраном коэфф.отр.2.6(!!!) НО. стоит один раз услышать, как Скала Джонсон на укр.язе поёт "Its A wonderfull world", или,что ещё жёще - как Шварц на нём приказы отдаёт, чтобы перестать врубаться в сюжет вовсе - "ривняйсь...- стрУнко! крОком руш!" - ребята, i'm off
 

Коментарии не врут)смотрел с удовольствием
 

обалденный мульт!!! особенно в 3Д
 

Мульт супер, и сюжет класс, в конце чуть не расплакался от радости и 3д в норме , советую посмотреть)))))
 

Мне 40 лет,а мульт понравился даже больше чем детям!
 

lizard76, вы свое мнение про украинский язык попридержите. Потому что существует огромная обойма релизов, в которых русский дубляж сосет у украинского. Вас никто на украинском смотреть не заставляет, а вы не лишайте выбора тех, кому это может понадобиться.
Про 80% русскоязычных в Украине - отдельный лол.
 

никого я лишить выбора не могу, - это ведь не мой релиз)
а вот меня (и огромное кол-во людей) лишили возможности смотреть кино в к/т на русском
- мнения на то и мнения, чтоб ими делиться
 

Спасибо Dag13 за мульт!!!
 

lizard76, нет, отсутствие альтернативы - другой вопрос. Я вообще поддерживаю идею о том, чтобы были сеансы с двумя языками. Но говорить о том, что украинский дубляж никому не нужен и низкокачествен, - несправедливо
 

Спасибо! Весёлый, интересный мультик!
 

побольшего бы таких ))) понравился
 

понравилрсь
 
Виталий Цыганов Профиль 16-Апр-2013 20:57

Страница 1 из 2

1, 2  След.