Торренты   
 
 

 

Астерикс и Обеликс в Британии / Astérix et Obélix: Au service de Sa Majesté [2012 г., BDrip, Anamorph OverUnder]

Рейтинг 3D:
43 голосов
7.5
Рейтинг фильма:
46 голосов
5.9
 
Вы должны быть авторизированы,
чтобы ставить оценки



Астерикс и Обеликс в Британии 3D
Astérix et Obélix: Au service de Sa Majesté 3D
Год выпуска: 2012
Страна: Венгрия, Испания, Италия, Франция
Жанр: комедия, приключения, семейный
Продолжительность: 01:50:06
Перевод: Профессиональный (полное дублирование)
Cубтитры: есть
Режиссер: Лоран Тирар
В ролях: Жерар Депардье (Obélix), Эдуард Баэр (Astérix), Гийом Гальенн (Jolitorax), Венсан Лакост (Goudurix), Валери Лемерсье (Miss Macintosh), Фабрис Лукини (Jules César), Катрин Денёв (Reine Cordelia), Шарлотта Лебон (Ophélia), Боли Ланнерс (Grossebaf), Дэни Бун (Têtedepiaf), Атмен Келиф (Pindépis), Жан Рошфор (Lucius Fouinus)
Роли дублировали: Алексей Колган, Дмитрий Полонский, Гавриил Гордеев, Полина Сибагатуллина, Александр Новиков и др.
Описание:
Пятидесятый год до нашей эры. Юлий Цезарь рвется к новым завоеваниям. Во главе своих прославленных легионов он собирается захватить остров, который находится на самом краю света — таинственную страну, именуемую Британией.
Войско Цезаря одерживает быструю и безоговорочную победу. Ну… почти безоговорочную: одна крошечная деревушка продолжает яростно обороняться, однако силы на исходе, и королева бриттов Корделия отправляет своего самого надежного офицера Красовакса за подмогой в Галлию, где находится такая же маленькая деревушка, известная своим упорным сопротивлением римлянам.
Между тем, у Астерикса с Обеликсом и так забот хватает. Вождь поручил им сделать настоящего мужчину из Гадорикса, своего надоедливого племянника, недавно приехавшего из Лютеции, а выполнить это крайне непросто. Когда к галлам приезжает Красовакс, те снабжают его бочонком своего знаменитого волшебного зелья, а Астерикс и Обеликс отправляются вместе с ним в Британию. Гадорикса они тоже берут с собой, ведь путешествие — отличный способ пополнить образование молодого человека.
Но, к сожалению, все идет не так, как задумывалось…--Релиз группы:

Проверено на встроенном плейере ТВ LG 42LW4500
--
Качество: BDrip by StarStranger
Контейнер: MKV
Формат 3D: Anamorph OverUnder / Вертикальная анаморфная стереопара
Порядок ракурсов: левый ракурс первый
Видео кодек: x264
Аудио кодек: AC3
Видео: AVC / 23,976 fps / 1920х1080p / 10,6 Mbps
Аудио: Русский / 48 KHz / AC3 / 6 ch / 640 kbps (Дубляж)
Cубтитры: русские

Скриншоты

MediaInfo

Код:
Общее
Уникальный идентификатор                 : 190991952933107690383980039482774174339 (0x8FAFB64E17830CCFA628C0D0E178BA83)
Полное имя                               : H:\AstérixEtObélix.Au ServiceDeSaMajesté.3D.2012.BD3DRip.Half.OU.x264.3D-RuGroup.mkv
Формат                                   : Matroska
Версия формата                           : Version 2
Размер файла                             : 8,86 Гбайт
Продолжительность                        : 1 ч. 50 м.
Общий поток                              : 11,5 Мбит/сек
Название фильма                          : Astérix et Obélix: Au service de Sa Majesté 3D release 3D-RuGroup rip by StarStranger
Дата кодирования                         : UTC 2013-02-23 22:15:49
Программа кодирования                    : mkvmerge v3.4.0 ('Rapunzel') сборка от May 15 2010 09:38:20
Библиотека кодирования                   : libebml v0.8.0 + libmatroska v0.9.0
Видео
Идентификатор                            : 1
Формат                                   : AVC
Формат/Информация                        : Advanced Video Codec
Профиль формата                          : High@L4.1
Параметр CABAC формата                   : Да
Параметр ReFrames формата                : 4 кадра
Идентификатор кодека                     : V_MPEG4/ISO/AVC
Продолжительность                        : 1 ч. 50 м.
Битрейт                                  : 10,6 Мбит/сек
Ширина                                   : 1920 пикселей
Высота                                   : 1080 пикселей
Соотношение сторон                       : 16:9
Режим частоты кадров                     : Постоянный
Частота кадров                           : 23,976 кадра/сек
Цветовое пространство                    : YUV
Субдискретизация насыщенности            : 4:2:0
Битовая глубина                          : 8 бит
Тип развёртки                            : Прогрессивная
Бит/(Пиксели*Кадры)                      : 0.214
Размер потока                            : 8,19 Гбайт (92%)
Библиотека кодирования                   : x264 core 129 r2245 bc13772
Настройки программы                      : cabac=1 / ref=4 / deblock=1:-3:-3 / analyse=0x3:0x133 / me=umh / subme=10 / psy=1 / psy_rd=1.05:0.15 / mixed_ref=1 / me_range=48 / chroma_me=1 / trellis=2 / 8x8dct=1 / cqm=0 / deadzone=21,11 / fast_pskip=0 / chroma_qp_offset=-3 / threads=3 / lookahead_threads=1 / sliced_threads=0 / nr=0 / decimate=1 / interlaced=0 / bluray_compat=0 / constrained_intra=0 / bframes=7 / b_pyramid=2 / b_adapt=2 / b_bias=0 / direct=3 / weightb=1 / open_gop=0 / weightp=2 / keyint=250 / keyint_min=23 / scenecut=40 / intra_refresh=0 / rc_lookahead=60 / rc=crf / mbtree=1 / crf=18.0 / qcomp=0.70 / qpmin=0 / qpmax=69 / qpstep=4 / vbv_maxrate=50000 / vbv_bufsize=50000 / crf_max=0.0 / nal_hrd=none / ip_ratio=1.40 / aq=1:0.90
Default                                  : Нет
Forced                                   : Нет
Аудио
Идентификатор                            : 2
Формат                                   : AC-3
Формат/Информация                        : Audio Coding 3
Расширение режима                        : CM (complete main)
Параметр Endianness формата              : Big
Идентификатор кодека                     : A_AC3
Продолжительность                        : 1 ч. 50 м.
Вид битрейта                             : Постоянный
Битрейт                                  : 640 Кбит/сек
Каналы                                   : 6 каналов
Расположение каналов                     : Front: L C R, Side: L R, LFE
Частота                                  : 48,0 КГц
Битовая глубина                          : 16 бит
Метод сжатия                             : С потерями
Размер потока                            : 504 Мбайт (6%)
Заголовок                                : Dub
Язык                                     : Russian
Default                                  : Нет
Forced                                   : Нет
Текст
Идентификатор                            : 3
Формат                                   : UTF-8
Идентификатор кодека                     : S_TEXT/UTF8
Идентификатор кодека/Информация          : UTF-8 Plain Text
Язык                                     : Russian
Default                                  : Нет
Forced                                   : Нет
Меню
00:00:00.000                             : :01
00:06:00.777                             : :02
00:15:09.200                             : :03
00:22:58.168                             : :04
00:29:16.588                             : :05
00:36:26.559                             : :06
00:42:32.300                             : :07
00:49:52.823                             : :08
00:54:20.924                             : :09
01:02:13.939                             : :10
01:09:40.635                             : :11
01:18:59.318                             : :12
01:24:40.784                             : :13
01:29:14.224                             : :14
01:37:28.843                             : :15
01:42:58.756                             : :16
Остальные раздачи этого фильма (4)
Благодарности релизеру (41)

Торрент:

Статус:

Размер:

Зарегистрирован   [ 2013-02-24 13:02 ]

проверено

8.86 GB

 
 Мнение о фильме (11)





Этот фильм надо выкинуть а лучше сжечь!
Самый худший фильм.
Это бред, по сравнению с которым самый лучший фильм кажется шедевром!
 

Алексаей +100%, не выдержал и 15 минут...
За релиз СПАСИБО!!!
 

Фильм действительно не очень( ,прошлые части были весёленькими ,эта тупая до ужаса...
 

Кино ни о чём.
 

Тупизм!!!!!!!!!!!!!!!!!!!!!!!! кажется даже самый тупой не смог бы засмеяться!!!
 

archik1000, Francepv, dmitryx, Алексаей, D.akaSS, зато исполнитель главной роли теперь чуть ли не почетный россиянин :) и уж точно - почетный чеченец :)
 

Фильм не понравился.
 

Не понравился,кое как досмотрел.
 

Норм фильм про астерикса и обеликса не шедевр но смотреть можно!
 

3D Нормальное, обьёмное и иногда с "вылетами". Обсолютно нормальный иронический фильм с сатирой на Британский образ жизни и вообще на современную жизнь.
 

Большое спасибо за хорошее качество, а главное - за русские сабы, которые идеально ложатся на речь в фильме. Людям с плохим слухом тоже есть место на этом хорошем трекере.
Великолепные впечатления от этой хорошей комедии.