Торренты   
 
 

 

Астерикс и Обеликс в Британии / Astérix et Obélix: Au service de Sa Majesté [2012, BDrip, half1080p, Anamorph SideBySide]

Рейтинг 3D:
43 голосов
7.5
Рейтинг фильма:
46 голосов
5.9
 
Вы должны быть авторизированы,
чтобы ставить оценки


Астерикс и Обеликс в Британии / Astérix et Obélix: Au service de Sa Majesté
Год выпуска: 2012
Страна: Венгрия, Испания, Италия, Франция
Жанр: комедия, приключения, семейный
Продолжительность: 01:50:07
Перевод: Профессиональный (полное дублирование)
Субтитры: есть
Режиссер: Лоран Тирар
В ролях: Жерар Депардье (Obélix), Эдуард Баэр (Astérix), Гийом Гальенн (Jolitorax), Венсан Лакост (Goudurix), Валери Лемерсье (Miss Macintosh), Фабрис Лукини (Jules César), Катрин Денёв (Reine Cordelia), Шарлотта Лебон (Ophélia), Боли Ланнерс (Grossebaf), Дэни Бун (Têtedepiaf), Атмен Келиф (Pindépis), Жан Рошфор (Lucius Fouinus)
Описание:
Пятидесятый год до нашей эры. Юлий Цезарь рвется к новым завоеваниям. Во главе своих прославленных легионов он собирается захватить остров, который находится на самом краю света — таинственную страну, именуемую Британией.
Войско Цезаря одерживает быструю и безоговорочную победу. Ну… почти безоговорочную: одна крошечная деревушка продолжает яростно обороняться, однако силы на исходе, и королева бриттов Корделия отправляет своего самого надежного офицера Красовакса за подмогой в Галлию, где находится такая же маленькая деревушка, известная своим упорным сопротивлением римлянам.
Между тем, у Астерикса с Обеликсом и так забот хватает. Вождь поручил им сделать настоящего мужчину из Гадорикса, своего надоедливого племянника, недавно приехавшего из Лютеции, а выполнить это крайне непросто. Когда к галлам приезжает Красовакс, те снабжают его бочонком своего знаменитого волшебного зелья, а Астерикс и Обеликс отправляются вместе с ним в Британию. Гадорикса они тоже берут с собой, ведь путешествие — отличный способ пополнить образование молодого человека.
Но, к сожалению, все идет не так, как задумывалось…
Качество: BDrip by Alexman©
Формат 3D: Anamorph SideBySide
Порядок ракурсов: Левый ракурс первый
Видео: AVC / 23,976 fps / 1920х1080p / 14.3 Mbps
Аудио 1: Русский дублированный / AC3 / 48 KHz / 5.1 ch / 640 Kbps
Аудио 2: Французский оригинальный / AC3 / 48 KHz / 5.1 ch / 640 Kbps
Субтитры: русские, полные, вшитые .srt

MediaInfo

General
Unique ID : 192255357641888966216935746214162665562 (0x90A308F7685320159A6503DD4335105A)
Complete name : Astérix et Obélix Au service de Sa Majesté [Астерикс и Обеликс в Британии] (2012) DUB hSbS 1080p by Alexman© (1).mkv
Format : Matroska
Format version : Version 4 / Version 2
File size : 12.2 GiB
Duration : 1h 50mn
Overall bit rate : 15.9 Mbps
Movie name : Astérix et Obélix Au service de Sa Majesté [Астерикс и Обеликс в Британии] (2012) DUB hSbS 1080p by Alexman©
Encoded date : UTC 2013-02-21 05:49:36
Writing application : mkvmerge v6.0.0 ('Coming Up For Air') built on Jan 20 2013 09:52:00
Writing library : libebml v1.3.0 + libmatroska v1.4.0
Video
ID : 1
Format : AVC
Format/Info : Advanced Video Codec
Format profile : High@L4.1
Format settings, CABAC : Yes
Format settings, ReFrames : 4 frames
Codec ID : V_MPEG4/ISO/AVC
Duration : 1h 50mn
Bit rate : 14.3 Mbps
Width : 1 920 pixels
Height : 1 080 pixels
Display aspect ratio : 16:9
Frame rate mode : Constant
Frame rate : 23.976 fps
Color space : YUV
Chroma subsampling : 4:2:0
Bit depth : 8 bits
Scan type : Progressive
Bits/(Pixel*Frame) : 0.288
Stream size : 11.0 GiB (90%)
Title : Astérix et Obélix Au service de Sa Majesté
Writing library : x264 core 129 r2245 bc13772
Encoding settings : cabac=1 / ref=4 / deblock=1:-3:-3 / analyse=0x3:0x113 / me=umh / subme=9 / psy=1 / psy_rd=1.00:0.15 / mixed_ref=1 / me_range=32 / chroma_me=1 / trellis=2 / 8x8dct=1 / cqm=0 / deadzone=21,11 / fast_pskip=1 / chroma_qp_offset=-3 / threads=4 / lookahead_threads=1 / sliced_threads=0 / nr=0 / decimate=1 / interlaced=0 / bluray_compat=0 / constrained_intra=0 / bframes=4 / b_pyramid=2 / b_adapt=2 / b_bias=0 / direct=3 / weightb=1 / open_gop=0 / weightp=2 / keyint=250 / keyint_min=23 / scenecut=40 / intra_refresh=0 / rc_lookahead=60 / rc=crf / mbtree=1 / crf=16.0 / qcomp=0.60 / qpmin=0 / qpmax=69 / qpstep=4 / vbv_maxrate=40000 / vbv_bufsize=40000 / crf_max=0.0 / nal_hrd=none / ip_ratio=1.40 / aq=1:0.70
Language : French
Default : Yes
Forced : No
Audio #1
ID : 2
Format : AC-3
Format/Info : Audio Coding 3
Mode extension : CM (complete main)
Format settings, Endianness : Big
Codec ID : A_AC3
Duration : 1h 50mn
Bit rate mode : Constant
Bit rate : 640 Kbps
Channel(s) : 6 channels
Channel positions : Front: L C R, Side: L R, LFE
Sampling rate : 48.0 KHz
Bit depth : 16 bits
Compression mode : Lossy
Stream size : 504 MiB (4%)
Title : Русский дублированный
Language : Russian
Default : Yes
Forced : Yes
Audio #2
ID : 3
Format : AC-3
Format/Info : Audio Coding 3
Mode extension : CM (complete main)
Format settings, Endianness : Big
Codec ID : A_AC3
Duration : 1h 50mn
Bit rate mode : Constant
Bit rate : 640 Kbps
Channel(s) : 6 channels
Channel positions : Front: L C R, Side: L R, LFE
Sampling rate : 48.0 KHz
Bit depth : 16 bits
Compression mode : Lossy
Stream size : 504 MiB (4%)
Title : Оригинальный
Language : French
Default : No
Forced : No
Text
ID : 4
Format : UTF-8
Codec ID : S_TEXT/UTF8
Codec ID/Info : UTF-8 Plain Text
Title : Русские полные
Language : Russian
Default : No
Forced : No

Скриншоты



Анимированные скриншоты для оценки 3Д-эффекта



Проверено на ТВ Samsung 40C7000 и Samsung 46D7000
Остальные раздачи этого фильма (4)
Благодарности релизеру (20)

Торрент:

Статус:

Размер:

Зарегистрирован   [ 2013-02-21 11:07 ]

проверено

12.22 GB

 
 Мнение о фильме (11)





Этот фильм надо выкинуть а лучше сжечь!
Самый худший фильм.
Это бред, по сравнению с которым самый лучший фильм кажется шедевром!
 

Алексаей +100%, не выдержал и 15 минут...
За релиз СПАСИБО!!!
 

Фильм действительно не очень( ,прошлые части были весёленькими ,эта тупая до ужаса...
 

Кино ни о чём.
 

Тупизм!!!!!!!!!!!!!!!!!!!!!!!! кажется даже самый тупой не смог бы засмеяться!!!
 

archik1000, Francepv, dmitryx, Алексаей, D.akaSS, зато исполнитель главной роли теперь чуть ли не почетный россиянин :) и уж точно - почетный чеченец :)
 

Фильм не понравился.
 

Не понравился,кое как досмотрел.
 

Норм фильм про астерикса и обеликса не шедевр но смотреть можно!
 

3D Нормальное, обьёмное и иногда с "вылетами". Обсолютно нормальный иронический фильм с сатирой на Британский образ жизни и вообще на современную жизнь.
 

Большое спасибо за хорошее качество, а главное - за русские сабы, которые идеально ложатся на речь в фильме. Людям с плохим слухом тоже есть место на этом хорошем трекере.
Великолепные впечатления от этой хорошей комедии.