Торренты   
 
 


Техасская резня бензопилой 3D, Трейлер / Texas Chainsaw 3D, Trailer [2013 г., DCPrip, Anamorph OverUnder]

Рейтинг 3D:
88 голосов
5.8
Рейтинг фильма:
87 голосов
5.4
 
Вы должны быть авторизированы,
чтобы ставить оценки


Техасская резня бензопилой 3D, Трейлер
Texas Chainsaw 3D, Trailer
--Год выпуска: 2013
Страна: США
Жанр: ужасы, триллер, ...
Продолжительность: 00:02:35--Описание: Местный шериф согласился организовать для Джеба Сойера, который и скрывался под Кожаным лицом, честный судебный процесс и предоставить ему адвоката. Однако его намерениям мешает мэр, который ведет за собой толпу людей, жаждущих линчевать кровавого маньяка. Когда ситуация начинает выходить из-под контроля, а горожане принимаются ладить петли для убийцы, кто-то бросает в дом Сойера бутылку с зажигательной смесью. Дом сгорает, а вместе с ним в огне гибнут и все, кто в нем находился, включая самого Джеба и его отца. Разумеется, спустя определенное время убийства с помощью бензопилы начинаются снова. Первое предположение шерифа — Джеб Сойер выжил и решил отомстить. Но он ли это на самом деле? И если нет, то кто?--Формат 3d: Anamorph OverUnder (левый ракурс верхний)
Качество: DCPrip
Контейнер: mkv
Видео: AVC / 1920х1080 / 24 fps / 4015 Kbps
Аудио: Русский / AC3 / 6 ch / 448 Kbps / 48 KHz--

MediaInfo:

Код:
General
Unique ID                      : 171739524379567693034951342874853807657 (0x8133D44AA0F06F3981B94B51D4AA9629)
Complete name                  : L:\_3D\3D-Trailers\_2013\Trailer_TexasChainsaw(3D)HalfOU-abq.mkv
Format                         : Matroska
Format version                 : Version 2
File size                      : 84.2 MiB
Duration                       : 2mn 35s
Overall bit rate               : 4 554 Kbps
Encoded date                   : UTC 2013-02-20 13:56:38
Writing application            : mkvmerge v4.0.0 ('The Stars were mine') сборка от Jun  6 2010 16:18:42
Writing library                : libebml v1.0.0 + libmatroska v1.0.0
Video
ID                             : 1
Format                         : AVC
Format/Info                    : Advanced Video Codec
Format profile                 : High@L4.1
Format settings, CABAC         : Yes
Format settings, ReFrames      : 4 frames
Codec ID                       : V_MPEG4/ISO/AVC
Duration                       : 2mn 35s
Bit rate                       : 4 015 Kbps
Width                          : 1 920 pixels
Height                         : 1 080 pixels
Display aspect ratio           : 16:9
Frame rate                     : 24.000 fps
Color space                    : YUV
Chroma subsampling             : 4:2:0
Bit depth                      : 8 bits
Scan type                      : Progressive
Bits/(Pixel*Frame)             : 0.081
Stream size                    : 74.2 MiB (88%)
Writing library                : x264 core 116 r2074 2641b9e
Encoding settings              : cabac=1 / ref=4 / deblock=1:-3:-3 / analyse=0x3:0x113 / me=umh / subme=9 / psy=1 / psy_rd=1.00:0.15 / mixed_ref=1 / me_range=16 / chroma_me=1 / trellis=2 / 8x8dct=1 / cqm=0 / deadzone=21,11 / fast_pskip=1 / chroma_qp_offset=-3 / threads=6 / sliced_threads=0 / nr=0 / decimate=1 / interlaced=0 / bluray_compat=0 / constrained_intra=0 / bframes=6 / b_pyramid=2 / b_adapt=2 / b_bias=0 / direct=3 / weightb=1 / open_gop=0 / weightp=2 / keyint=240 / keyint_min=24 / scenecut=40 / intra_refresh=0 / rc_lookahead=60 / rc=crf / mbtree=1 / crf=18.0 / qcomp=0.60 / qpmin=0 / qpmax=69 / qpstep=4 / vbv_maxrate=40000 / vbv_bufsize=40000 / crf_max=0.0 / nal_hrd=none / frame-packing=4 / ip_ratio=1.40 / aq=1:0.70
Language                       : English
Default                        : No
Forced                         : No
Audio
ID                             : 2
Format                         : AC-3
Format/Info                    : Audio Coding 3
Mode extension                 : CM (complete main)
Format settings, Endianness    : Big
Codec ID                       : A_AC3
Duration                       : 2mn 35s
Bit rate mode                  : Constant
Bit rate                       : 448 Kbps
Channel(s)                     : 6 channels
Channel positions              : Front: L C R, Side: L R, LFE
Sampling rate                  : 48.0 KHz
Bit depth                      : 16 bits
Compression mode               : Lossy
Stream size                    : 8.28 MiB (10%)
Language                       : Russian
Default                        : Yes
Forced                         : No

Скриншоты

Остальные раздачи этого фильма (3)
Благодарности релизеру (8)

Торрент:

Статус:

Размер:

Зарегистрирован   [ 2013-02-21 18:54 ]

проверено

84 MB

 
 Мнение о фильме (21)

1, 2  След.






В кинотеатре смотрели, там к стати 3D не очень качественное было. Короче полное разочарование. По большому счету все в зале угорали над фильмом, получился не ужастик, а комедия. Некоторые моменты ну очень глупые, по фильму если человеку перерезать горло и содрать с него шкуру, то он еще будет жить, как говориться живее всех живых, убить его можно лишь одним способом это выпустить кишки! Но осадок от просмотра фильма остался положительный, лучший чем от последней части сумерек.
 

Сам фильм на 3 с + из 5, и 3D так же не очень. На разок посмотреть пойдёт! А ещё был-бы без чёрных полос- поставил-бы твёрдую 4.
 

ТАК СЕБЕ
 

Что в 3д что в 2д одинаково.
 

мура,
 
виталик дз Профиль 25-Май-2013 16:54

Чуть не уснул,муть несусветная. 3D не увидел,глубина слабая,2-3 вылета
 

среднячок такой
 

Переврали историю фильма сделав из мясника и его кровожадных родственников жертв)
 

Фильм так себе... Есть пара вылетов.
 

кинцо для пожирателей попкорна
 

Фильмец так себе, 3д ничего нормально. В любом случае спасибо за раздачу!
 
девочка на облаке Профиль 01-Июл-2013 16:37

3 Д нормальное. Фильм неплохой. Спасибо за раздачу!
 
Оксана Вдовченко Профиль 03-Июл-2013 11:02

Озвучка копец! Перевод временами отстает и временами его нет вообще, только английская речь!
 

чет не впечатлило
 

Смотрел ТехРезню еще в 2002г был просто в восторге от фильма , надежды на 3D версию не оправдались , за релиз торрента спасибо !!! К просмотру не советую
 
Александр556677 Профиль 29-Июл-2013 13:06

ожидал большего. фильм не оправдал себя
 

фильм и 3D в нем так себе
 

Спасибо за релиз!!!
 

Разочек посмотреть можно, но в целом - средненько.
 

Просто не качайте, отвратительнейший фильм, даже описать сложно как он плох.
 

Страница 1 из 2

1, 2  След.