Торренты   
 
 

 

Побег с планеты Земля в 3D, Трейлер / Escape from Planet Earth in 3D, Trailer [2013 г., DCPrip, Anamorph OverUnder]

Рейтинг 3D:
2 голосов
9.0
Рейтинг фильма:
2 голосов
6.0
 
Вы должны быть авторизированы,
чтобы ставить оценки


Побег с планеты Земля в 3D, Трейлер
Escape from Planet Earth in 3D, Trailer
--Год выпуска: 2013
Страна: США, Канада
Жанр: мультфильм, фантастика, комедия, приключения, семейный,...
Продолжительность: 00:02:28--Описание: На планете Бааб, в самом центре Вселенной, два брата делают всё возможное, чтобы защитить свою галактику. Они — полные противоположности. Если девиз Гарри — «сначала подумай, потом сделай», то отважный Скорч живет по закону «сила есть — ума не надо», что не мешает им слаженно работать. Но однажды они получают сигнал S.O.S. с опасной планеты…под названием Земля. Скорч, сломя голову, бросается на помощь, и, разумеется, влипает в неприятности. Только Гарри может вытащить его из «Зоны 51». Братья откроют множество головокружительных тайн, но смогут ли они сбежать с самой опасной планеты во Вселенной?--Формат 3d: Anamorph OverUnder (левый ракурс верхний)
Качество: DCPrip
Контейнер: mkv
Видео: AVC / 1920х1080 / 24 fps / 5619 Kbps
Аудио: Русский / AC3 / 6 ch / 448 Kbps / 48 KHz--

MediaInfo:

Код:
General
Unique ID                      : 196766742249075998146401238036577202707 (0x9407E5668726650086B5A9B2FE573213)
Complete name                  : L:\_3D\3D-Trailers\_2013\Trailer_EscapeFromPlanetEarth(3D)HalfOU-abq.mkv
Format                         : Matroska
Format version                 : Version 2
File size                      : 109 MiB
Duration                       : 2mn 27s
Overall bit rate               : 6 190 Kbps
Encoded date                   : UTC 2013-01-25 18:28:49
Writing application            : mkvmerge v4.0.0 ('The Stars were mine') сборка от Jun  6 2010 16:18:42
Writing library                : libebml v1.0.0 + libmatroska v1.0.0
Video
ID                             : 1
Format                         : AVC
Format/Info                    : Advanced Video Codec
Format profile                 : High@L4.1
Format settings, CABAC         : Yes
Format settings, ReFrames      : 4 frames
Codec ID                       : V_MPEG4/ISO/AVC
Duration                       : 2mn 27s
Bit rate                       : 5 619 Kbps
Width                          : 1 920 pixels
Height                         : 1 080 pixels
Display aspect ratio           : 16:9
Frame rate                     : 24.000 fps
Color space                    : YUV
Chroma subsampling             : 4:2:0
Bit depth                      : 8 bits
Scan type                      : Progressive
Bits/(Pixel*Frame)             : 0.113
Stream size                    : 99.0 MiB (91%)
Writing library                : x264 core 116 r2074 2641b9e
Encoding settings              : cabac=1 / ref=4 / deblock=1:-3:-3 / analyse=0x3:0x113 / me=umh / subme=9 / psy=1 / psy_rd=1.00:0.15 / mixed_ref=1 / me_range=16 / chroma_me=1 / trellis=2 / 8x8dct=1 / cqm=0 / deadzone=21,11 / fast_pskip=1 / chroma_qp_offset=-3 / threads=6 / sliced_threads=0 / nr=0 / decimate=1 / interlaced=0 / bluray_compat=0 / constrained_intra=0 / bframes=6 / b_pyramid=2 / b_adapt=2 / b_bias=0 / direct=3 / weightb=1 / open_gop=0 / weightp=2 / keyint=240 / keyint_min=24 / scenecut=40 / intra_refresh=0 / rc_lookahead=60 / rc=crf / mbtree=1 / crf=18.0 / qcomp=0.60 / qpmin=0 / qpmax=69 / qpstep=4 / vbv_maxrate=40000 / vbv_bufsize=40000 / crf_max=0.0 / nal_hrd=none / frame-packing=4 / ip_ratio=1.40 / aq=1:0.70
Language                       : English
Default                        : No
Forced                         : No
Audio
ID                             : 2
Format                         : AC-3
Format/Info                    : Audio Coding 3
Mode extension                 : CM (complete main)
Format settings, Endianness    : Big
Codec ID                       : A_AC3
Duration                       : 2mn 27s
Bit rate mode                  : Constant
Bit rate                       : 448 Kbps
Channel(s)                     : 6 channels
Channel positions              : Front: L C R, Side: L R, LFE
Sampling rate                  : 48.0 KHz
Bit depth                      : 16 bits
Compression mode               : Lossy
Stream size                    : 7.90 MiB (7%)
Language                       : Russian
Default                        : Yes
Forced                         : No

Скриншоты

Благодарности релизеру (7)

Торрент:

Статус:

Размер:

Зарегистрирован   [ 2013-02-21 19:24 ]

проверено

109 MB