Торренты   
 
 


Монстры на острове в 3D, Трейлер / Friends: Mononokeshima no Naki 3D, Trailer [2013 г., DCPrip, Anamorph OverUnder]

Рейтинг 3D:
Пока никто не голосовал
Рейтинг фильма:
Пока никто не голосовал
 
Вы должны быть авторизированы,
чтобы ставить оценки


Монстры на острове в 3D, Трейлер
Friends: Mononokeshima no Naki 3D, Trailer
--Год выпуска: 2013
Страна: Япония, Канада
Жанр: мультфильм, фэнтези, приключения,...
Продолжительность: 00:02:04--Описание: Далеко в океане, покрытый густым туманом и похожий на привидение, спрятался Остров. По легенде, на нем живут монстры, которые охраняют растущие там чудесные ягоды и грибы. Приближаться к Острову запрещено… Однажды мальчик из племени случайно оказался на Острове и столкнулся лицом к лицу со всем таинственным, что на нем было. Поначалу монстры приняли его дружелюбно, но мальчик оказался настоящим чертенком. Монстры, устав от его выходок, решили отправить его обратно. Попадет ли он обратно домой и сохранит ли тайну Острова? Разгадка наступит в самом конце…--Формат 3d: Anamorph OverUnder (левый ракурс верхний)
Качество: DCPrip
Контейнер: mkv
Видео: AVC / 1920х1080 / 24 fps / 13.0 Mbps
Аудио: Русский / AC3 / 6 ch / 448 Kbps / 48 KHz--

MediaInfo:

Код:
General
Unique ID                      : 173777174753055403139269996279503974039 (0x82BC44361E7EE7759767B8CE62AEEE97)
Complete name                  : L:\_3D\3D-Trailers\_2013\Trailer_FriendsMononokeshimaNoNaki(3D)HalfOU-abq.mkv
Format                         : Matroska
Format version                 : Version 2
File size                      : 203 MiB
Duration                       : 2mn 3s
Overall bit rate               : 13.7 Mbps
Encoded date                   : UTC 2013-02-15 06:34:10
Writing application            : mkvmerge v4.0.0 ('The Stars were mine') сборка от Jun  6 2010 16:18:42
Writing library                : libebml v1.0.0 + libmatroska v1.0.0
Video
ID                             : 1
Format                         : AVC
Format/Info                    : Advanced Video Codec
Format profile                 : High@L4.1
Format settings, CABAC         : Yes
Format settings, ReFrames      : 4 frames
Codec ID                       : V_MPEG4/ISO/AVC
Duration                       : 2mn 3s
Bit rate                       : 13.0 Mbps
Width                          : 1 920 pixels
Height                         : 1 080 pixels
Display aspect ratio           : 16:9
Frame rate                     : 24.000 fps
Color space                    : YUV
Chroma subsampling             : 4:2:0
Bit depth                      : 8 bits
Scan type                      : Progressive
Bits/(Pixel*Frame)             : 0.262
Stream size                    : 192 MiB (95%)
Writing library                : x264 core 116 r2074 2641b9e
Encoding settings              : cabac=1 / ref=4 / deblock=1:-3:-3 / analyse=0x3:0x113 / me=umh / subme=9 / psy=1 / psy_rd=1.00:0.15 / mixed_ref=1 / me_range=16 / chroma_me=1 / trellis=2 / 8x8dct=1 / cqm=0 / deadzone=21,11 / fast_pskip=1 / chroma_qp_offset=-3 / threads=6 / sliced_threads=0 / nr=0 / decimate=1 / interlaced=0 / bluray_compat=0 / constrained_intra=0 / bframes=6 / b_pyramid=2 / b_adapt=2 / b_bias=0 / direct=3 / weightb=1 / open_gop=0 / weightp=2 / keyint=240 / keyint_min=24 / scenecut=40 / intra_refresh=0 / rc_lookahead=60 / rc=crf / mbtree=1 / crf=18.0 / qcomp=0.60 / qpmin=0 / qpmax=69 / qpstep=4 / vbv_maxrate=40000 / vbv_bufsize=40000 / crf_max=0.0 / nal_hrd=none / frame-packing=4 / ip_ratio=1.40 / aq=1:0.70
Language                       : English
Default                        : No
Forced                         : No
Audio
ID                             : 2
Format                         : AC-3
Format/Info                    : Audio Coding 3
Mode extension                 : CM (complete main)
Format settings, Endianness    : Big
Codec ID                       : A_AC3
Duration                       : 2mn 3s
Bit rate mode                  : Constant
Bit rate                       : 448 Kbps
Channel(s)                     : 6 channels
Channel positions              : Front: L C R, Side: L R, LFE
Sampling rate                  : 48.0 KHz
Bit depth                      : 16 bits
Compression mode               : Lossy
Stream size                    : 6.60 MiB (3%)
Language                       : Russian
Default                        : Yes
Forced                         : No

Скриншоты

Благодарности релизеру (10)

Торрент:

Статус:

Размер:

Зарегистрирован   [ 2013-02-21 19:35 ]

проверено

203 MB