Торренты   
 
 


Самый страшный фильм / Dead Before Dawn (Эйприл Маллен / April Mullen) [2012, Ужасы, комедия, HDTV 1080i, Anamorph SideBySide]

Рейтинг 3D:
21 голосов
6.6
Рейтинг фильма:
23 голосов
3.3
 
Вы должны быть авторизированы,
чтобы ставить оценки


Самый страшный фильм
Dead Before Dawn- Год выпуска: 2012
Страна: Канада
Жанр: Ужасы, комедия
Продолжительность: 01:24:45
Перевод: Профессиональный (полное дублирование)
-Режиссер: Эйприл Маллен / April Mullen
В ролях: Девон Бостик, Кристофер Ллойд, Марта МакАйсак, Брэндон Джей МакЛарен,
Бриттани Аллен, Эйприл Маллен, Тим Дойрон, Кевин МакДональд, Эллен Дубин, Кайл Шмид

-Описание: Комедийная пародия на фильмы о зомби. Оставшись за главного в лавке древностей, принадлежащей его деду, Каспер, и его друзья по колледжу, случайно разбивают старинный артефакт и обрушивают себе на голову древнее проклятье. Теперь, стоит им только взглянуть на кого-нибудь, как тот убивает себя, а потом воскресает зомбаком! Пока друзья разбирались в чем тут дело, половина города успела превратится в зомби. Зомбаками стали даже ребята из сборной колледжа по футболу и девчонки из группы поддержки. Теперь друзьям необходимо срочно найти способ снять проклятье. Это будет нелегко, но зато очень круто и дико смешно!- -Формат 3D: Anamorph SideBySide / Горизонтальная анаморфная стереопара
Порядок ракурсов: Левый ракурс первый
- Качество: HDTV 1080i
Формат: MPEG-TS
Видео кодек: AVC
Аудио кодек: AC3
Видео: AVC 1920x1080i 25.000 fps 6 429 Kbps
Аудио: Russian : AC3 48.0 KHz 2 channels 448 kbps
-

Mediainfo


General #1
ID : 1 (0x1)
Complete name : D:\Downloads\Dead Before Dawn (3D)2012.halfSBS (Solaris).ts
Format : MPEG-TS
File size : 4.29 GiB
Duration : 1h 24mn
Overall bit rate mode : Variable
Overall bit rate : 7 240 Kbps
Maximum Overall bit rate : 35.5 Mbps
Video #4113
ID : 4113 (0x1011)
Menu ID : 1 (0x1)
Format : AVC
Format/Info : Advanced Video Codec
Format profile : Main@L4.0
Format settings, CABAC : Yes
Format settings, ReFrames : 3 frames
Codec ID : 27
Duration : 1h 24mn
Bit rate mode : Variable
Bit rate : 6 429 Kbps
Maximum bit rate : 40.0 Mbps
Width : 1 920 pixels
Height : 1 080 pixels
Display aspect ratio : 16:9
Frame rate : 25.000 fps
Standard : Component
Color space : YUV
Chroma subsampling : 4:2:0
Bit depth : 8 bits
Scan type : Interlaced
Scan order : Top Field First
Bits/(Pixel*Frame) : 0.124
Stream size : 3.81 GiB (89%)
Color primaries : BT.709-5, BT.1361, IEC 61966-2-4, SMPTE RP177
Transfer characteristics : BT.709-5, BT.1361
Matrix coefficients : BT.709-5, BT.1361, IEC 61966-2-4 709, SMPTE RP177
Audio #4352
ID : 4352 (0x1100)
Menu ID : 1 (0x1)
Format : AC-3
Format/Info : Audio Coding 3
Mode extension : CM (complete main)
Codec ID : 129
Duration : 1h 24mn
Bit rate mode : Constant
Bit rate : 448 Kbps
Channel(s) : 2 channels
Channel positions : Front: L R
Sampling rate : 48.0 KHz
Bit depth : 16 bits
Compression mode : Lossy
Delay relative to video : -215ms
Stream size : 272 MiB (6%)
Language : Russian

Скриншоты


-© Design by Solaris
Остальные раздачи этого фильма (2)
Благодарности релизеру (29)

Торрент:

Статус:

Размер:

Зарегистрирован   [ 2013-02-24 01:07 ]

проверено

4.29 GB

 
 Мнение о фильме (10)





И почему всякую хрень снимают без черных полос?
 

И почему всякую хрень снимают без черных полос?
потому что заранее знали и расчитывали эту муть не на большие кинозалы :)
 
ВАСИЛИЙ СОЛОМОН Профиль 24-Фев-2013 16:11

Фильм на любителя , но посмотреть в 3D можно.
 

по НТВ+ щас идет ..
 

можно посмотреть
 

Супер дерьмо...
 

дермище несусветное!!!!!!!!!!Релизеру за труды-респект,он не виноват
 

Рип по видео отличный. Но на встроенном плеере LG 47LW575S при воспроизведении русской дорожки постоянно кратковременные выпадения звука. На компе все ОК. Может кто-нибудь знает в чем проблема?
 
001_mailinator2_com Профиль 27-Июл-2013 14:45

где старые актеры? ноу не интересно
 

Фильм супер. 2 раза посмотрел