Торренты   
 
 


Пауки 3D / Spiders (Тибор Такач) [2013 г., Anamorph SideBySide]

Рейтинг 3D:
5 голосов
4.1
Рейтинг фильма:
6 голосов
6.3
 
Вы должны быть авторизированы,
чтобы ставить оценки


Пауки 3D / Spiders
Год выпуска: 2013
Страна: США
Жанр: Триллер
Продолжительность: 01:29:38
Перевод: Любительский (одноголосый)
Режиссер: Тибор Такач
В ролях: Патрик Малдун, Криста Кэмпбелл, Уильям Хоуп, Антоанета Ёрданова, Шелли Варод, Джон Макк, Йонас Токингтон, Атанас Сребрев, Сара Браун, Пит Ли-Уилсон
Описание: Падение старой советской космической станции стало причиной того, что в Нью-Йоркской подземке расплодился новый вид ядовитых пауков. К тому же пауки начинают быстро прибавлять в размерах и… вскоре по улицам города уже вышагивали лохматые лапы, принадлежащие огромным паукам.
Доп. информация: Сохранены оригинальные чаптеры, как на Blu-Ray
Релиз группы
Формат 3D: Anamorph SideBySide
Порядок ракурсов: Левый ракурс первый
Видео: AVC / 23,976 fps / 1920х1080p / 12,1 Mbps
Аудио: Русский / 48 KHz / AC3 / 6 ch / 448 kbps, Английский / 48 KHz / AC3 / 6 ch / 640 kbps

Скриншоты

Mediainfo

Общее
Уникальный идентификатор : 178091090853110613124567906986368739685 (0x85FB18B24660F0E29DAA294D0B88A965)
Полное имя : Spiders.2013.3D.1080p.mkv
Формат : Matroska
Версия формата : Version 4 / Version 2
Размер файла : 8,39 Гбайт
Продолжительность : 1 ч. 29 м.
Общий поток : 13,4 Мбит/сек
Дата кодирования : UTC 2013-02-25 08:44:12
Программа кодирования : mkvmerge v6.0.0 ('Coming Up For Air') built on Jan 20 2013 09:52:00
Библиотека кодирования : libebml v1.3.0 + libmatroska v1.4.0
Видео
Идентификатор : 1
Формат : AVC
Формат/Информация : Advanced Video Codec
Профиль формата : High@L4.1
MultiView_Count : 2
MultiView_Layout : Side by Side (left eye first)
Параметр CABAC формата : Да
Параметр ReFrames формата : 4 кадра
Идентификатор кодека : V_MPEG4/ISO/AVC
Продолжительность : 1 ч. 29 м.
Битрейт : 12,0 Мбит/сек
Ширина : 1920 пикселей
Высота : 1080 пикселей
Соотношение сторон : 16:9
Режим частоты кадров : Постоянный
Частота кадров : 23,976 кадра/сек
Цветовое пространство : YUV
Субдискретизация насыщенности : 4:2:0
Битовая глубина : 8 бит
Тип развёртки : Прогрессивная
Бит/(Пиксели*Кадры) : 0.242
Размер потока : 7,54 Гбайт (90%)
Заголовок : Spiders.2013.3D.1080p.Bluray.H-SBS.X264.ENG.AC3-zman
Библиотека кодирования : x264 core 129 r2245 bc13772
Настройки программы : cabac=1 / ref=4 / deblock=1:-3:-3 / analyse=0x3:0x113 / me=umh / subme=9 / psy=1 / psy_rd=1.00:0.15 / mixed_ref=1 / me_range=16 / chroma_me=1 / trellis=1 / 8x8dct=1 / cqm=0 / deadzone=21,11 / fast_pskip=1 / chroma_qp_offset=-3 / threads=12 / lookahead_threads=2 / sliced_threads=0 / nr=0 / decimate=1 / interlaced=0 / bluray_compat=0 / constrained_intra=0 / bframes=6 / b_pyramid=2 / b_adapt=1 / b_bias=0 / direct=3 / weightb=1 / open_gop=0 / weightp=2 / keyint=250 / keyint_min=23 / scenecut=40 / intra_refresh=0 / rc_lookahead=40 / rc=crf / mbtree=1 / crf=17.0 / qcomp=0.60 / qpmin=10 / qpmax=69 / qpstep=4 / vbv_maxrate=40000 / vbv_bufsize=30000 / crf_max=0.0 / nal_hrd=none / ip_ratio=1.40 / aq=1:1.00
Default : Да
Forced : Нет
Аудио #1
Идентификатор : 2
Формат : AC-3
Формат/Информация : Audio Coding 3
Расширение режима : CM (complete main)
Параметр Endianness формата : Big
Идентификатор кодека : A_AC3
Продолжительность : 1 ч. 29 м.
Вид битрейта : Постоянный
Битрейт : 448 Кбит/сек
Каналы : 6 каналов
Расположение каналов : Front: L C R, Side: L R, LFE
Частота : 44,1 КГц
Битовая глубина : 16 бит
Метод сжатия : С потерями
Размер потока : 287 Мбайт (3%)
Язык : Russian
Default : Нет
Forced : Нет
Аудио #2
Идентификатор : 3
Формат : AC-3
Формат/Информация : Audio Coding 3
Расширение режима : CM (complete main)
Параметр Endianness формата : Big
Идентификатор кодека : A_AC3
Продолжительность : 1 ч. 29 м.
Вид битрейта : Постоянный
Битрейт : 640 Кбит/сек
Каналы : 6 каналов
Расположение каналов : Front: L C R, Side: L R, LFE
Частота : 48,0 КГц
Битовая глубина : 16 бит
Метод сжатия : С потерями
Размер потока : 410 Мбайт (5%)
Язык : English
Default : Да
Forced : Нет
Меню
00:00:00.000 : en:00:00:00.000
00:07:40.710 : en:00:07:40.710
00:14:39.504 : en:00:14:39.504
00:23:40.794 : en:00:23:40.794
00:31:27.844 : en:00:31:27.844
00:39:54.684 : en:00:39:54.684
00:47:58.667 : en:00:47:58.667
00:57:37.537 : en:00:57:37.537
01:03:46.322 : en:01:03:46.322
01:10:06.869 : en:01:10:06.869
01:17:29.436 : en:01:17:29.436
01:25:12.274 : en:01:25:12.274
Благодарности релизеру (14)

Торрент:

Статус:

Размер:

Зарегистрирован   [ 2013-02-25 14:39 ]

# сомнительно

8.39 GB

 
Комментарии:





как фильм? стоит качать?
 

просто жесть
 

спасибо!)
проф перевода не будет? или подождать надо?
 

TMT5 этот фильм не воспроизводит. Nvidia player показывает нормальное 3D, но звук сильно
отстаёт от видео.
 

как фильм? стоит качать?
 

The Message Is Removed
 

Досконально релиз не проверял! Посмотрел в начале пару минут, расинхрона не было! Русская дорога стоит по умолчанию! Плеер "Splash Pro". Возможно и есть рассинхрон, но он мне не попался. Я бы не стал лить релиз с рассинхроном, тем более трекер серьезный.
 

Jordan, если обрезать 6 секунд начала русской дороги (что Вы и сделали), то до 36-й минуты всё идёт абсолютно синхронно, а потом начинается страшное... :)
То, что русская дорога стоИт выше английской, ещё не значит, что она включена по умолчанию. Важно вот что:
Язык : Russian
Default : Нет
Forced : Нет
-------
Язык : English
Default : Да
Forced : Нет
 

Поглощено этим релизом http://torrents3d.ru/viewtopic.php?type_post=1&t=3792
 

отвратно!!!!!!!!!!!!!!!!!!!!
 

запустил вчера эту раздачу на медиаплеере и там с самого начала рассинхрон. был ужасно огорчен тем, что скачал (
 

Топик был перенесен из форума Фильмы в форум Архив

Zagruzin