Торренты   
 
 


Пауки 3D / Spiders 3D [2013, BDrip, half1080p, Anamorph SideBySide]

Рейтинг 3D:
22 голосов
4.3
Рейтинг фильма:
21 голосов
2.9
 
Вы должны быть авторизированы,
чтобы ставить оценки


Пауки 3D / Spiders 3D
Год выпуска: 2013
Страна: США
Жанр: триллер
Продолжительность: 01:29:13
Перевод: Любительский одноголосый
Режиссер: Тибор Такач
В ролях: Патрик Малдун, Криста Кэмпбелл, Уильям Хоуп, Антоанета Ёрданова, Шелли Варод, Джон Макк, Йонас Токингтон, Атанас Сребрев, Сара Браун, Пит Ли-Уилсон
Описание: Падение старой советской космической станции стало причиной того, что в Нью-Йоркской подземке расплодился новый вид ядовитых пауков. К тому же пауки начинают быстро прибавлять в размерах и… вскоре по улицам города уже вышагивали лохматые лапы, принадлежащие огромным паукам.
Качество: BDrip by Alexman©
Формат 3D: Anamorph SideBySide
Порядок ракурсов: левый ракурс первый
Видео: AVC / 23,976 fps / 1920х1080p / 10.5 Mbps
Аудио 1: Русский любительский (одноголосый) / AC3 / 48 KHz / 5.1 ch / 448 Kbps
Аудио 2: Английский оригинальный / AC3 / 48 KHz / 5.1 ch / 640 Kbps
Примечание: Во второй половине фильма русский голос наложен на английскую дорожку с рандомным рассинхроном, т.е. не всегда совпадает с тем, что происходит на экране. Благо, говорят там мало :)
Огромная благодарность за кропотливую работу по подгонке русской звуковой дорожки Александру (ash61)

MediaInfo

General
Unique ID : 252756395908854413212056180249761597823 (0xBE271C746ED5C58CB07F3B19335EC97F)
Complete name : Spiders 3D [Пауки 3D] (2013) AVO hSbS 1080p by Alexman©.mkv
Format : Matroska
Format version : Version 4 / Version 2
File size : 7.40 GiB
Duration : 1h 29mn
Overall bit rate : 11.9 Mbps
Movie name : Spiders 3D [Пауки 3D] (2013) AVO hSbS 1080p by Alexman©
Encoded date : UTC 2013-02-26 19:54:25
Writing application : mkvmerge v6.0.0 ('Coming Up For Air') built on Jan 20 2013 09:52:00
Writing library : libebml v1.3.0 + libmatroska v1.4.0
Video
ID : 1
Format : AVC
Format/Info : Advanced Video Codec
Format profile : High@L4.1
Format settings, CABAC : Yes
Format settings, ReFrames : 4 frames
Codec ID : V_MPEG4/ISO/AVC
Duration : 1h 29mn
Bit rate : 10.5 Mbps
Width : 1 920 pixels
Height : 1 080 pixels
Display aspect ratio : 16:9
Frame rate mode : Constant
Frame rate : 23.976 fps
Color space : YUV
Chroma subsampling : 4:2:0
Bit depth : 8 bits
Scan type : Progressive
Bits/(Pixel*Frame) : 0.212
Stream size : 6.57 GiB (89%)
Title : Spiders 3D
Writing library : x264 core 129 r2245 bc13772
Encoding settings : cabac=1 / ref=4 / deblock=1:-3:-3 / analyse=0x3:0x113 / me=umh / subme=9 / psy=1 / psy_rd=1.00:0.15 / mixed_ref=1 / me_range=32 / chroma_me=1 / trellis=2 / 8x8dct=1 / cqm=0 / deadzone=21,11 / fast_pskip=1 / chroma_qp_offset=-3 / threads=6 / lookahead_threads=1 / sliced_threads=0 / nr=0 / decimate=1 / interlaced=0 / bluray_compat=0 / constrained_intra=0 / bframes=4 / b_pyramid=2 / b_adapt=2 / b_bias=0 / direct=3 / weightb=1 / open_gop=0 / weightp=2 / keyint=250 / keyint_min=23 / scenecut=40 / intra_refresh=0 / rc_lookahead=60 / rc=crf / mbtree=1 / crf=17.0 / qcomp=0.60 / qpmin=0 / qpmax=69 / qpstep=4 / vbv_maxrate=40000 / vbv_bufsize=40000 / crf_max=0.0 / nal_hrd=none / ip_ratio=1.40 / aq=1:0.70
Language : English
Default : Yes
Forced : No
Audio #1
ID : 2
Format : AC-3
Format/Info : Audio Coding 3
Mode extension : CM (complete main)
Format settings, Endianness : Big
Codec ID : A_AC3
Duration : 1h 29mn
Bit rate mode : Constant
Bit rate : 448 Kbps
Channel(s) : 6 channels
Channel positions : Front: L C R, Side: L R, LFE
Sampling rate : 48.0 KHz
Bit depth : 16 bits
Compression mode : Lossy
Stream size : 286 MiB (4%)
Title : Любительский одноголосый
Language : Russian
Default : Yes
Forced : Yes
Audio #2
ID : 3
Format : AC-3
Format/Info : Audio Coding 3
Mode extension : CM (complete main)
Format settings, Endianness : Big
Codec ID : A_AC3
Duration : 1h 29mn
Bit rate mode : Constant
Bit rate : 640 Kbps
Channel(s) : 6 channels
Channel positions : Front: L C R, Side: L R, LFE
Sampling rate : 48.0 KHz
Bit depth : 16 bits
Compression mode : Lossy
Stream size : 408 MiB (5%)
Title : English original
Language : English
Default : No
Forced : No

Скриншоты



Анимированные скриншоты для оценки 3Д-эффекта



Релиз заменён 27.02.2013г.
Желающие могут перекачать торрент.
Причина замены - изменён порядок ракурсов.
Проверено на ТВ Samsung 40C7000 и Samsung 46D7000
Остальные раздачи этого фильма (3)
Благодарности релизеру (12)

Торрент:

Статус:

Размер:

Зарегистрирован   [ 2013-02-27 00:20 ]

проверено

7.4 GB

 
 Мнение о фильме (14)





По ходу убогая графика
 

фильм полнейшая фигня!!! зря потраченное время!!
 

А как 3Д?, что на столько всё убого?
 

спасибо огромное за фильм, но перевод идёт вперед видео, а киношка так себе, но 3д ничего себе местами.
 
девочка на облаке Профиль 28-Фев-2013 20:40

однако! рейтинги пугают - качать не буду
 

Спасибо за релиз. Фильм лажа, точнее одноразовый, 3d и качество фильма очень даже хорошо, перевод "гнусавый голос", лучше английский врубить.
 

Фильм полнейший...шедевр %)))...особенно в конце обнадеживающе полез паучек по светофору..я чувствую выйдет долгожданная 2-я часть))))
 

фильм в принципе крепкий представитель категории Б, т.е. прикольно посмотреть в междуфильме, перевод - да лучше врубить английский.
 

3D в порядке, а фильмец, да бюджетненький такой, так себе.
 

Озвучивание очень тихое, английский можно было приглушить,некоторые слова не возможно разобрать! Фильм понравился и 3D нормальное.Спасибо Alexman.
 

Жаль Уве Болл в 3D не снимает, так хоть это посмотрю )
 

Пауков достаточно много, а вот 3D - сильно сказано. Любителям подобного кино проще скачать 2D. Автор раздачи неувиновен.))
 

Подскажите откуда качнуть блюрик этого фильма?
Хочется посмотреть с Blu-Ray диска.
 

фильм с ТВ3. питушня.