Торренты   
 
 

 

Гладиаторы Рима / Gladiatori di Roma [2012, BDrip, half1080p, Anamorph SideBySide]

Рейтинг 3D:
45 голосов
8.1
Рейтинг фильма:
46 голосов
7.1
 
Вы должны быть авторизированы,
чтобы ставить оценки


Гладиаторы Рима / Gladiatori di Roma
Год выпуска: 2012
Страна: Италия (Rainbow S.r.l )
Жанр: мультфильм, комедия, приключения
Продолжительность: 01:34:05
Перевод: Профессиональный (полное дублирование)
Режиссер: Иджинио Страффи
Роли озвучивали: Лука Арджентеро, Лаура Кьятти, Джулианна Хаф, Белен Родригес
Роли дублировали: Дмитрий Нагиев и др.
Описание: Страшное извержение вулкана разрушает город Помпеи, и маленький Тим остается сиротой. Его спаситель, генерал Кирон, отправляет Тима в школу гладиаторов, но юный лентяй упорно не желает становиться бойцом. Повзрослев, Тим влюбляется в красавицу Лючиллу. Но чтобы покорить её сердце, нужно стать настоящим героем. Прекрасная Диана, богиня охоты и мастер по гладиаторским боям, берется за тренировки Тима перед первым боем. Но получится ли у Тима победить самого себя и стать настоящим мужчиной?
Качество: BDrip by Alexman©
Формат 3D: Anamorph SideBySide / Горизонтальная анаморфная стереопара
Порядок ракурсов: левый ракурс первый
Видео: MPEG4 AVC, 9 452 Kbps, 1920x1080, 23.976 кадр/с
Аудио №1: Русский дублированный перевод / AC3 / 48 KHz / 5.1 ch / 448 Kbps
Аудио №2: Итальянский оригинальный / AC3 / 48 KHz / 5.1 ch / 640 Kbps

MediaInfo

General
Unique ID : 217689126165742371141682476272576409948 (0xA3C56691FB68196AA559AF0A5480B15C)
Complete name : Gladiatori di Roma [Гладиаторы Рима] (2012) DUB hSbS 1080p by Alexman©.mkv
Format : Matroska
Format version : Version 4 / Version 2
File size : 7.07 GiB
Duration : 1h 34mn
Overall bit rate : 10.8 Mbps
Movie name : Gladiatori di Roma [Гладиаторы Рима] (2012) DUB hSbS 1080p by Alexman©
Encoded date : UTC 2013-02-26 07:14:09
Writing application : mkvmerge v6.0.0 ('Coming Up For Air') built on Jan 20 2013 09:52:00
Writing library : libebml v1.3.0 + libmatroska v1.4.0
Video
ID : 1
Format : AVC
Format/Info : Advanced Video Codec
Format profile : High@L4.1
Format settings, CABAC : Yes
Format settings, ReFrames : 4 frames
Codec ID : V_MPEG4/ISO/AVC
Duration : 1h 34mn
Bit rate : 9 452 Kbps
Width : 1 920 pixels
Height : 1 080 pixels
Display aspect ratio : 16:9
Frame rate mode : Constant
Frame rate : 23.976 fps
Color space : YUV
Chroma subsampling : 4:2:0
Bit depth : 8 bits
Scan type : Progressive
Bits/(Pixel*Frame) : 0.190
Stream size : 6.21 GiB (88%)
Title : Gladiatori di Roma [Гладиаторы Рима]
Writing library : x264 core 129 r2245 bc13772
Encoding settings : cabac=1 / ref=4 / deblock=1:-3:-3 / analyse=0x3:0x113 / me=umh / subme=9 / psy=1 / psy_rd=1.00:0.15 / mixed_ref=1 / me_range=32 / chroma_me=1 / trellis=2 / 8x8dct=1 / cqm=0 / deadzone=21,11 / fast_pskip=1 / chroma_qp_offset=-3 / threads=4 / lookahead_threads=1 / sliced_threads=0 / nr=0 / decimate=1 / interlaced=0 / bluray_compat=0 / constrained_intra=0 / bframes=4 / b_pyramid=2 / b_adapt=2 / b_bias=0 / direct=3 / weightb=1 / open_gop=0 / weightp=2 / keyint=250 / keyint_min=23 / scenecut=40 / intra_refresh=0 / rc_lookahead=60 / rc=crf / mbtree=1 / crf=16.0 / qcomp=0.60 / qpmin=0 / qpmax=69 / qpstep=4 / vbv_maxrate=40000 / vbv_bufsize=40000 / crf_max=0.0 / nal_hrd=none / ip_ratio=1.40 / aq=1:0.70
Language : English
Default : Yes
Forced : No
Audio #1
ID : 2
Format : AC-3
Format/Info : Audio Coding 3
Mode extension : CM (complete main)
Format settings, Endianness : Big
Codec ID : A_AC3
Duration : 1h 34mn
Bit rate mode : Constant
Bit rate : 448 Kbps
Channel(s) : 6 channels
Channel positions : Front: L C R, Side: L R, LFE
Sampling rate : 48.0 KHz
Bit depth : 16 bits
Compression mode : Lossy
Stream size : 301 MiB (4%)
Title : Русский дублированный
Language : Russian
Default : Yes
Forced : Yes
Audio #2
ID : 3
Format : AC-3
Format/Info : Audio Coding 3
Mode extension : CM (complete main)
Format settings, Endianness : Big
Codec ID : A_AC3
Duration : 1h 34mn
Bit rate mode : Constant
Bit rate : 640 Kbps
Channel(s) : 6 channels
Channel positions : Front: L C R, Side: L R, LFE
Sampling rate : 48.0 KHz
Bit depth : 16 bits
Compression mode : Lossy
Stream size : 431 MiB (6%)
Title : Originale Italiano
Language : Italian
Default : No
Forced : No

Скриншоты



Анимированные скриншоты для оценки 3Д-эффекта



Проверено на ТВ Samsung 40C7000 и Samsung 46D7000
Остальные раздачи этого фильма (4)
Благодарности релизеру (17)

Торрент:

Статус:

Размер:

Зарегистрирован   [ 2013-02-26 11:51 ]

проверено

7.07 GB

 
 Мнение о фильме (16)





хороший мультфильм итальянцы молодцы 3д тоже на уровне
 
евгения мурашко Профиль 26-Фев-2013 16:23

А по моему мнению - фильмец отстой полный. Ни я ни дети не досмотрели до конца. :(
 

Кинопоиск тоже так думает
 

Классный мульт!
 

мульт чет унылый((((
 

Отличный веселый мульт! Юмор классный! Мы с детьми посмеялись от души! Спасибо!
 

Согласен с ion до Гладиатора не дотягивает)
 

Хороший веселый мультик.Понравилось и мне и сыну.
 

Чушь полная. Улыбнулся пару раз... Да ещё и голубятиной отдаёт:(
 

Хороший мультфильм! Даже пару фраз на заметку взяла) С удовольствием с дочкой посмотрели! Спасибо! 3D слабоватое правда, в середине фильма вообще очки сняли.
 

мне понравился,а внукам очень понравился!!!Спасибо за раздачу,и создателям этого мультика!!!
 
светлана заикина Профиль 29-Июн-2013 23:32

Ожидал большего, но в целом не плохо...
 

Фильм можно посмотреть. Dag 13 в очередной раз молодец! Спасибо!!!
 

на один раз нормал
 

Нормальный, веселый фильм. 3d в норме. В коллекцию.
 

Мне понравился мультфильм. Спасибо!