Торренты   
 
 

 

Гладиаторы Рима / Gladiatori di Roma [2012 г., BDrip, Anamorph OverUnder]

Рейтинг 3D:
45 голосов
8.1
Рейтинг фильма:
46 голосов
7.1
 
Вы должны быть авторизированы,
чтобы ставить оценки



Гладиаторы Рима / Gladiatori di Roma

Год выпуска: 2012
Страна: Италия (Rainbow S.r.l)
Жанр: мультфильм, комедия, приключения
Продолжительность: 01:34:05
Перевод: Профессиональный (дублированный)
Русские субтитры: нет
Режиссер: Иджинио Страффи
Сценарий: Майкл Дж. Уилсон
Продюсер: Иджинио Страффи
Художник: Винченцо Ниско
Монтаж: Серена Дови
Роли озвучивали:
Лука Арджентеро, Лаура Кьятти, Джулианна Хаф, Белен Родригес Ловиц и др.
Роли дублировали:
Дмитрий Нагиев и др.
Описание:
Страшное извержение вулкана разрушает город Помпеи, и маленький Тим остается сиротой. Его спаситель, генерал Кирон, отправляет Тима в школу гладиаторов, но юный лентяй упорно не желает становиться бойцом. Повзрослев, Тим влюбляется в красавицу Лючиллу. Но чтобы покорить её сердце, нужно стать настоящим героем. Прекрасная Диана, богиня охоты и мастер по гладиаторским боям, берется за тренировки Тима перед первым боем. Но получится ли у Тима победить самого себя и стать настоящим мужчиной?
-- Релиз группы:

премьера (мир) 18 октября 2012
премьера (РФ) 7 февраля 2013, «Люксор» 3D
релиз на Blu-Ray 28 февраля 2013, «Флагман-Трейд»
бюджет $40 000 000


Проверено на встроенном плейере ТВ LG 42LW4500
--
Качество: BDrip by StarStranger
Контейнер: MKV
Формат 3D: Anamorph OverUnder / Вертикальная анаморфная стереопара
Порядок ракурсов: левый ракурс первый
Видео кодек: x264
Аудио кодек: AC3
Видео: AVC / 23,976 fps / 1920х1080p / 8267 Kbps
Аудио:
Русский / AC3 / 48 KHz / 5.1 ch / 448 Kbps
Субтитры: отсутствуют

MediaInfo

Код:
Общее
Уникальный идентификатор                 : 219782323878809787067874956800643368469 (0xA558892F7741CD11AC7046837E350615)
Полное имя                               : H:\GladiatoriDiRoma.3D.2012.BD3DRip.Half.OU.x264.AC3.3D-RuGroup.mkv
Формат                                   : Matroska
Версия формата                           : Version 2
Размер файла                             : 5,84 Гбайт
Продолжительность                        : 1 ч. 34 м.
Общий поток                              : 8892 Кбит/сек
Название фильма                          : Gladiatori di Roma 3D release 3D-RuGroup rip by StarStranger
Дата кодирования                         : UTC 2013-02-26 13:48:09
Программа кодирования                    : mkvmerge v3.4.0 ('Rapunzel') сборка от May 15 2010 09:38:20
Библиотека кодирования                   : libebml v0.8.0 + libmatroska v0.9.0
Видео
Идентификатор                            : 1
Формат                                   : AVC
Формат/Информация                        : Advanced Video Codec
Профиль формата                          : High@L4.1
Параметр CABAC формата                   : Да
Параметр ReFrames формата                : 4 кадра
Идентификатор кодека                     : V_MPEG4/ISO/AVC
Продолжительность                        : 1 ч. 34 м.
Битрейт                                  : 8267 Кбит/сек
Ширина                                   : 1920 пикселей
Высота                                   : 1080 пикселей
Соотношение сторон                       : 16:9
Режим частоты кадров                     : Постоянный
Частота кадров                           : 23,976 кадра/сек
Цветовое пространство                    : YUV
Субдискретизация насыщенности            : 4:2:0
Битовая глубина                          : 8 бит
Тип развёртки                            : Прогрессивная
Бит/(Пиксели*Кадры)                      : 0.166
Размер потока                            : 5,43 Гбайт (93%)
Заголовок                                : rip by StarStranger
Библиотека кодирования                   : x264 core 129 r2245 bc13772
Настройки программы                      : cabac=1 / ref=4 / deblock=1:-3:-3 / analyse=0x3:0x133 / me=umh / subme=10 / psy=1 / psy_rd=1.00:0.15 / mixed_ref=1 / me_range=48 / chroma_me=1 / trellis=2 / 8x8dct=1 / cqm=0 / deadzone=21,11 / fast_pskip=0 / chroma_qp_offset=-3 / threads=3 / lookahead_threads=1 / sliced_threads=0 / nr=0 / decimate=1 / interlaced=0 / bluray_compat=0 / constrained_intra=0 / bframes=7 / b_pyramid=2 / b_adapt=2 / b_bias=0 / direct=3 / weightb=1 / open_gop=0 / weightp=2 / keyint=250 / keyint_min=23 / scenecut=40 / intra_refresh=0 / rc_lookahead=60 / rc=crf / mbtree=1 / crf=17.0 / qcomp=0.70 / qpmin=0 / qpmax=69 / qpstep=4 / vbv_maxrate=50000 / vbv_bufsize=50000 / crf_max=0.0 / nal_hrd=none / ip_ratio=1.40 / aq=1:0.90
Язык                                     : Italian
Default                                  : Нет
Forced                                   : Нет
Аудио
Идентификатор                            : 2
Формат                                   : AC-3
Формат/Информация                        : Audio Coding 3
Расширение режима                        : CM (complete main)
Параметр Endianness формата              : Big
Идентификатор кодека                     : A_AC3
Продолжительность                        : 1 ч. 34 м.
Вид битрейта                             : Постоянный
Битрейт                                  : 448 Кбит/сек
Каналы                                   : 6 каналов
Расположение каналов                     : Front: L C R, Side: L R, LFE
Частота                                  : 48,0 КГц
Битовая глубина                          : 16 бит
Метод сжатия                             : С потерями
Размер потока                            : 301 Мбайт (5%)
Заголовок                                : Dub
Язык                                     : Russian
Default                                  : Нет
Forced                                   : Нет
Меню
00:00:00.000                             : :01
00:05:49.808                             : :02
00:13:47.035                             : :03
00:19:00.139                             : :04
00:25:01.417                             : :05
00:31:26.426                             : :06
00:35:59.032                             : :07
00:42:21.205                             : :08
00:47:07.867                             : :09
00:52:27.227                             : :10
00:56:24.089                             : :11
01:03:29.806                             : :12
01:08:41.284                             : :13
01:13:22.648                             : :14
01:17:42.283                             : :15
01:23:48.357                             : :16

Скриншоты

Анимированные скриншоты для оценки качества 3D

Остальные раздачи этого фильма (4)
Благодарности релизеру (34)

Торрент:

Статус:

Размер:

Зарегистрирован   [ 2013-02-26 18:41 ]

проверено

5.84 GB

 
 Мнение о фильме (16)





хороший мультфильм итальянцы молодцы 3д тоже на уровне
 
евгения мурашко Профиль 26-Фев-2013 16:23

А по моему мнению - фильмец отстой полный. Ни я ни дети не досмотрели до конца. :(
 

Кинопоиск тоже так думает
 

Классный мульт!
 

мульт чет унылый((((
 

Отличный веселый мульт! Юмор классный! Мы с детьми посмеялись от души! Спасибо!
 

Согласен с ion до Гладиатора не дотягивает)
 

Хороший веселый мультик.Понравилось и мне и сыну.
 

Чушь полная. Улыбнулся пару раз... Да ещё и голубятиной отдаёт:(
 

Хороший мультфильм! Даже пару фраз на заметку взяла) С удовольствием с дочкой посмотрели! Спасибо! 3D слабоватое правда, в середине фильма вообще очки сняли.
 

мне понравился,а внукам очень понравился!!!Спасибо за раздачу,и создателям этого мультика!!!
 
светлана заикина Профиль 29-Июн-2013 23:32

Ожидал большего, но в целом не плохо...
 

Фильм можно посмотреть. Dag 13 в очередной раз молодец! Спасибо!!!
 

на один раз нормал
 

Нормальный, веселый фильм. 3d в норме. В коллекцию.
 

Мне понравился мультфильм. Спасибо!