Торренты   
 
 


Пауки / Spiders 3D (Тибор Такач) [2013 г., BDRip, Full OverUnder]

Рейтинг 3D:
22 голосов
4.3
Рейтинг фильма:
21 голосов
2.9
 
Вы должны быть авторизированы,
чтобы ставить оценки


Пауки / Spiders 3D
Год выпуска: 2013
Страна: США
Жанр: фантастика, триллер
Продолжительность: 01:29:13
Перевод: Любительский (одноголосый)
Режиссер: Тибор Такач
В ролях: Патрик Малдун, Криста Кэмпбелл, Уильям Хоуп, Антоанета Ёрданова, Шелли Варод, Джон Макк, Йонас Токингтон, Атанас Сребрев, Сара Браун, Пит Ли-Уилсон
Описание: Падение старой советской космической станции стало причиной того, что в Нью-Йоркской подземке расплодился новый вид ядовитых пауков. К тому же пауки начинают быстро прибавлять в размерах и… вскоре по улицам города уже вышагивали лохматые лапы, принадлежащие огромным паукам.
Релиз группы:
Формат 3D: OverUnder BDRip, Full
Видео: AVC, High@L5.0, 1920x2160, 23.976 fps, 17,6 Мбит/сек
Аудио: Rus, AC-3, 6 каналов, 448 Кбит/сек, 48,0 КГц
Аудио: Eng, AC-3, 6 каналов, 640 Кбит/сек, 48,0 КГц
Особая благодарность за редактирование русской дорожки Ash61

Скриншоты




MediaInfo

Общее
Уникальный идентификатор : 182523473663550471046668559049368806805 (0x8950BE0A887217CDB9D2CB2173582595)
Полное имя : E:\STEREO\Spiders_1080p_Rip by Dag13.mkv
Формат : Matroska
Версия формата : Version 2
Размер файла : 11,9 Гбайт
Продолжительность : 1 ч. 29 м.
Общий поток : 19,1 Мбит/сек
Дата кодирования : UTC 2013-02-26 13:46:39
Программа кодирования : mkvmerge v3.4.0 ('Rapunzel') сборка от May 15 2010 09:38:20
Библиотека кодирования : libebml v0.8.0 + libmatroska v0.9.0
Видео
Идентификатор : 1
Формат : AVC
Формат/Информация : Advanced Video Codec
Профиль формата : High@L5.0
Параметр CABAC формата : Да
Параметр ReFrames формата : 4 кадра
Идентификатор кодека : V_MPEG4/ISO/AVC
Продолжительность : 1 ч. 29 м.
Битрейт : 17,6 Мбит/сек
Ширина : 1920 пикселей
Высота : 2160 пикселей
Соотношение сторон : 0,889
Режим частоты кадров : Постоянный
Частота кадров : 23,976 кадра/сек
Цветовое пространство : YUV
Субдискретизация насыщенности : 4:2:0
Битовая глубина : 8 бит
Тип развёртки : Прогрессивная
Бит/(Пиксели*Кадры) : 0.177
Размер потока : 11,0 Гбайт (92%)
Заголовок : Rip by Dag13
Библиотека кодирования : x264 core 120 r2145 748fe16
Настройки программы : cabac=1 / ref=4 / deblock=1:-3:-3 / analyse=0x3:0x113 / me=umh / subme=9 / psy=1 / psy_rd=1.00:0.00 / mixed_ref=1 / me_range=16 / chroma_me=1 / trellis=2 / 8x8dct=1 / cqm=0 / deadzone=21,11 / fast_pskip=1 / chroma_qp_offset=-2 / threads=9 / sliced_threads=0 / nr=0 / decimate=1 / interlaced=0 / bluray_compat=0 / constrained_intra=0 / bframes=6 / b_pyramid=2 / b_adapt=2 / b_bias=0 / direct=3 / weightb=1 / open_gop=0 / weightp=2 / keyint=250 / keyint_min=23 / scenecut=40 / intra_refresh=0 / rc_lookahead=60 / rc=crf / mbtree=1 / crf=18.0 / qcomp=0.60 / qpmin=1 / qpmax=69 / qpstep=4 / ip_ratio=1.40 / aq=1:1.00
Язык : English
Default : Нет
Forced : Нет
Аудио #1
Идентификатор : 2
Формат : AC-3
Формат/Информация : Audio Coding 3
Расширение режима : CM (complete main)
Параметр Endianness формата : Big
Идентификатор кодека : A_AC3
Продолжительность : 1 ч. 29 м.
Вид битрейта : Постоянный
Битрейт : 448 Кбит/сек
Каналы : 6 каналов
Расположение каналов : Front: L C R, Side: L R, LFE
Частота : 48,0 КГц
Битовая глубина : 16 бит
Метод сжатия : С потерями
Размер потока : 286 Мбайт (2%)
Язык : Russian
Default : Да
Forced : Нет
Аудио #2
Идентификатор : 3
Формат : AC-3
Формат/Информация : Audio Coding 3
Расширение режима : CM (complete main)
Параметр Endianness формата : Big
Идентификатор кодека : A_AC3
Продолжительность : 1 ч. 29 м.
Вид битрейта : Постоянный
Битрейт : 640 Кбит/сек
Каналы : 6 каналов
Расположение каналов : Front: L C R, Side: L R, LFE
Частота : 48,0 КГц
Битовая глубина : 16 бит
Метод сжатия : С потерями
Размер потока : 408 Мбайт (3%)
Язык : English
Default : Нет
Forced : Нет
На встроенных ТВ-плейерах показывать НЕ будет!!!
Остальные раздачи этого фильма (3)
Благодарности релизеру (8)

Торрент:

Статус:

Размер:

Зарегистрирован   [ 2013-02-26 19:00 ]

проверено

11.88 GB

 
 Мнение о фильме (14)





По ходу убогая графика
 

фильм полнейшая фигня!!! зря потраченное время!!
 

А как 3Д?, что на столько всё убого?
 

спасибо огромное за фильм, но перевод идёт вперед видео, а киношка так себе, но 3д ничего себе местами.
 
девочка на облаке Профиль 28-Фев-2013 20:40

однако! рейтинги пугают - качать не буду
 

Спасибо за релиз. Фильм лажа, точнее одноразовый, 3d и качество фильма очень даже хорошо, перевод "гнусавый голос", лучше английский врубить.
 

Фильм полнейший...шедевр %)))...особенно в конце обнадеживающе полез паучек по светофору..я чувствую выйдет долгожданная 2-я часть))))
 

фильм в принципе крепкий представитель категории Б, т.е. прикольно посмотреть в междуфильме, перевод - да лучше врубить английский.
 

3D в порядке, а фильмец, да бюджетненький такой, так себе.
 

Озвучивание очень тихое, английский можно было приглушить,некоторые слова не возможно разобрать! Фильм понравился и 3D нормальное.Спасибо Alexman.
 

Жаль Уве Болл в 3D не снимает, так хоть это посмотрю )
 

Пауков достаточно много, а вот 3D - сильно сказано. Любителям подобного кино проще скачать 2D. Автор раздачи неувиновен.))
 

Подскажите откуда качнуть блюрик этого фильма?
Хочется посмотреть с Blu-Ray диска.
 

фильм с ТВ3. питушня.