Торренты   
 
 

 

Гладиаторы Рима в 3Д / Gladiatori di Roma 3D (Иджинио Страффи / Iginio Straffi) [2012, Мультфильм, Комедия, Приключения, BDrip, 1080p]Full OverUnder / Вертикальная стереопара

Рейтинг 3D:
45 голосов
8.1
Рейтинг фильма:
46 голосов
7.1
 
Вы должны быть авторизированы,
чтобы ставить оценки


Гладиаторы Рима / Gladiatori di Roma
Год выпуска: 2012
Страна: Италия
Студия: Medusa Mediaset Group, Rainbow S.r.l.
Жанр: Мультфильм, Комедия, Приключения
Продолжительность: 01:34:05
Перевод: Профессиональный (дублированный)
Русские субтитры: нет
Режиссер на русском: Иджинио Страффи
Режиссер на английском: Iginio Straffi
В ролях: Лука Арджентеро, Лаура Кьятти, Джулианна Хаф, Белен Родригес
Описание: Страшное извержение вулкана разрушает город Помпеи, и маленький Тим остается сиротой. Его спаситель, генерал Кирон, отправляет Тима в школу гладиаторов, но юный лентяй упорно не желает становиться бойцом. Повзрослев, Тим влюбляется в красавицу Лючиллу. Но чтобы покорить её сердце, нужно стать настоящим героем. Прекрасная Диана, богиня охоты и мастер по гладиаторским боям, берется за тренировки Тима перед первым боем. Но получится ли у Тима победить самого себя и стать настоящим мужчиной?
Сэмпл : http://www.sendspace.com/file/r1y7tx
Качество: BDrip
Контейнер: MKV
Формат 3D: OverUnder / Вертикальная стереопара
Порядок ракурсов: левый ракурс первый
Видео кодек: x264
Аудио кодек: AC3
Видео: AVC / 23,976 fps / 1920х1632 / 12.2 Mbps
Аудио: Русский / AC3 / 48 KHz / 5.1 ch / 448 Kbps
Аудио 2: Итальянский / AC3 / 48 KHz / 5.1 ch / 640 Kbps
Релиз группы: ВНИМАНИЕ ! На встроенных ТВ-плейерах работать не будет!!!
Железные плееры на которых воспроизводятся полные стереопары:Popcorn C-200 , Dune HD Smart D1 , Dune HD DUO , Dune HD Smart H1 , Dune HD Smart B1 , Dune HD Max , Dune HD TV-303D , Dune HD Base 3D

MediaInfo

General
Unique ID : 244945316420743282018595445430024682466 (0xB846C080A9399DC787AB38FBA4083BE2)
Complete name : D:\закачки\Gladiatori di Roma.Rip by SeRoGa00.mkv
Format : Matroska
Format version : Version 2
File size : 8.92 GiB
Duration : 1h 34mn
Overall bit rate : 13.6 Mbps
Encoded date : UTC 2013-02-26 15:03:24
Writing application : mkvmerge v3.4.0 ('Rapunzel') сборка от May 15 2010 09:38:20
Writing library : libebml v0.8.0 + libmatroska v0.9.0
Video
ID : 1
Format : AVC
Format/Info : Advanced Video Codec
Format profile : High@L5.0
Format settings, CABAC : Yes
Format settings, ReFrames : 4 frames
Codec ID : V_MPEG4/ISO/AVC
Duration : 1h 34mn
Bit rate : 12.2 Mbps
Width : 1 920 pixels
Height : 1 632 pixels
Display aspect ratio : 1.176
Frame rate : 23.976 fps
Color space : YUV
Chroma subsampling : 4:2:0
Bit depth : 8 bits
Scan type : Progressive
Bits/(Pixel*Frame) : 0.163
Stream size : 8.03 GiB (90%)
Title : Rip by SeRoGa00
Writing library : x264 core 128 r2216kMod 198a7ea
Encoding settings : cabac=1 / ref=4 / deblock=1:-3:-3 / analyse=0x3:0x113 / me=umh / subme=9 / psy=1 / fade_compensate=0.00 / psy_rd=1.00:0.15 / mixed_ref=1 / me_range=16 / chroma_me=1 / trellis=2 / 8x8dct=1 / cqm=0 / deadzone=21,11 / fast_pskip=1 / chroma_qp_offset=-3 / threads=6 / lookahead_threads=1 / sliced_threads=0 / nr=0 / decimate=1 / interlaced=0 / bluray_compat=0 / constrained_intra=0 / bframes=6 / b_pyramid=2 / b_adapt=2 / b_bias=0 / direct=3 / weightb=1 / open_gop=0 / weightp=2 / keyint=250 / keyint_min=23 / scenecut=40 / intra_refresh=0 / rc_lookahead=60 / rc=crf / mbtree=1 / crf=18.0000 / qcomp=0.60 / qpmin=10 / qpmax=69 / qpstep=4 / vbv_maxrate=40000 / vbv_bufsize=40000 / crf_max=0.0 / nal_hrd=none / ip_ratio=1.40 / aq=1:1.00
Language : English
Default : Yes
Forced : No
Audio #1
ID : 2
Format : AC-3
Format/Info : Audio Coding 3
Mode extension : CM (complete main)
Format settings, Endianness : Big
Codec ID : A_AC3
Duration : 1h 34mn
Bit rate mode : Constant
Bit rate : 448 Kbps
Channel(s) : 6 channels
Channel positions : Front: L C R, Side: L R, LFE
Sampling rate : 48.0 KHz
Bit depth : 16 bits
Compression mode : Lossy
Stream size : 301 MiB (3%)
Language : Russian
Default : Yes
Forced : No
Audio #2
ID : 3
Format : AC-3
Format/Info : Audio Coding 3
Mode extension : CM (complete main)
Format settings, Endianness : Big
Codec ID : A_AC3
Duration : 1h 34mn
Bit rate mode : Constant
Bit rate : 640 Kbps
Channel(s) : 6 channels
Channel positions : Front: L C R, Side: L R, LFE
Sampling rate : 48.0 KHz
Bit depth : 16 bits
Compression mode : Lossy
Stream size : 431 MiB (5%)
Language : Italian
Default : No
Forced : No

Скриншоты


Остальные раздачи этого фильма (4)
Благодарности релизеру (10)

Торрент:

Статус:

Размер:

Зарегистрирован   [ 2013-02-26 19:30 ]

проверено

8.92 GB

 
 Мнение о фильме (16)





хороший мультфильм итальянцы молодцы 3д тоже на уровне
 
евгения мурашко Профиль 26-Фев-2013 16:23

А по моему мнению - фильмец отстой полный. Ни я ни дети не досмотрели до конца. :(
 

Кинопоиск тоже так думает
 

Классный мульт!
 

мульт чет унылый((((
 

Отличный веселый мульт! Юмор классный! Мы с детьми посмеялись от души! Спасибо!
 

Согласен с ion до Гладиатора не дотягивает)
 

Хороший веселый мультик.Понравилось и мне и сыну.
 

Чушь полная. Улыбнулся пару раз... Да ещё и голубятиной отдаёт:(
 

Хороший мультфильм! Даже пару фраз на заметку взяла) С удовольствием с дочкой посмотрели! Спасибо! 3D слабоватое правда, в середине фильма вообще очки сняли.
 

мне понравился,а внукам очень понравился!!!Спасибо за раздачу,и создателям этого мультика!!!
 
светлана заикина Профиль 29-Июн-2013 23:32

Ожидал большего, но в целом не плохо...
 

Фильм можно посмотреть. Dag 13 в очередной раз молодец! Спасибо!!!
 

на один раз нормал
 

Нормальный, веселый фильм. 3d в норме. В коллекцию.
 

Мне понравился мультфильм. Спасибо!