Торренты   
 
 


Франкенвини / Frankenweenie (Тим Бёртон) [2012 г., BDRip, Full OverUnder]

Рейтинг 3D:
41 голосов
6.9
Рейтинг фильма:
42 голосов
6.6
 
Вы должны быть авторизированы,
чтобы ставить оценки


Франкенвини / Frankenweenie
Год выпуска: 2012
Страна: США
Жанр: мультфильм, фантастика, комедия, семейный
Продолжительность: 01:26:57
Перевод: Профессиональный (полное дублирование)
Режиссер: Тим Бёртон
В ролях: Чарли Тахэн, Кэтрин О’Хара, Мартин Шорт, Мартин Ландау, Вайнона Райдер, Роберт Капрон, Кончата Феррелл, Аттикус Шаффер, Том Кенни, Джеймс Хироюки Лиао
Описание: Обожаемый мальчиком Виктором пес Спарки погибает в результате несчастного случая. Мальчик, не желая мириться с потерей друга, призывает науку на помощь и…возвращает питомца к жизни! Казалось бы, все не так уж плохо, но когда Спарки сбегает от Виктора, его друзья, родители, учителя и жители городка узнают, что возвращение к жизни домашнего питомца может повлечь за собой неожиданные и даже ужасные последствия!
Релиз группы:
Формат 3D: OverUnder BDRip, Full
Видео: AVC, High@L4.0, 1920x2080 , 23.976 fps, 11,4 Мбит/сек
Аудио: Rus, AC-3, 6 каналов, 640 Кбит/сек, 48,0 КГц
Аудио: Ukr, AC-3, 6 каналов, 640 Кбит/сек, 48,0 КГц
Аудио: Eng, DTS, 6 каналов, 1510 Кбит/сек, 48,0 КГц

Скриншоты




MediaInfo

Общее
Уникальный идентификатор : 184070824195872203446886684156157312145 (0x8A7AC04FFFBA3CAE808BF57B14D13C91)
Полное имя : E:\STEREO\Frankenweenie_1080p_Rip by Dag13.mkv
Формат : Matroska
Версия формата : Version 2
Размер файла : 8,79 Гбайт
Продолжительность : 1 ч. 26 м.
Общий поток : 14,5 Мбит/сек
Дата кодирования : UTC 2013-02-28 15:03:48
Программа кодирования : mkvmerge v3.4.0 ('Rapunzel') сборка от May 15 2010 09:38:20
Библиотека кодирования : libebml v0.8.0 + libmatroska v0.9.0
Видео
Идентификатор : 1
Формат : AVC
Формат/Информация : Advanced Video Codec
Профиль формата : High@L5.0
Параметр CABAC формата : Да
Параметр ReFrames формата : 4 кадра
Идентификатор кодека : V_MPEG4/ISO/AVC
Продолжительность : 1 ч. 26 м.
Битрейт : 11,4 Мбит/сек
Ширина : 1920 пикселей
Высота : 2080 пикселей
Соотношение сторон : 0,923
Режим частоты кадров : Постоянный
Частота кадров : 23,976 кадра/сек
Цветовое пространство : YUV
Субдискретизация насыщенности : 4:2:0
Битовая глубина : 8 бит
Тип развёртки : Прогрессивная
Бит/(Пиксели*Кадры) : 0.119
Размер потока : 6,92 Гбайт (79%)
Заголовок : Rip by Dag13
Библиотека кодирования : x264 core 120 r2145 748fe16
Настройки программы : cabac=1 / ref=4 / deblock=1:-3:-3 / analyse=0x3:0x113 / me=umh / subme=9 / psy=1 / psy_rd=1.00:0.00 / mixed_ref=1 / me_range=16 / chroma_me=1 / trellis=2 / 8x8dct=1 / cqm=0 / deadzone=21,11 / fast_pskip=1 / chroma_qp_offset=-2 / threads=9 / sliced_threads=0 / nr=0 / decimate=1 / interlaced=0 / bluray_compat=0 / constrained_intra=0 / bframes=6 / b_pyramid=2 / b_adapt=2 / b_bias=0 / direct=3 / weightb=1 / open_gop=0 / weightp=2 / keyint=250 / keyint_min=23 / scenecut=40 / intra_refresh=0 / rc_lookahead=60 / rc=crf / mbtree=1 / crf=18.0 / qcomp=0.60 / qpmin=1 / qpmax=69 / qpstep=4 / ip_ratio=1.40 / aq=1:1.00
Язык : English
Default : Нет
Forced : Нет
Аудио #1
Идентификатор : 2
Формат : AC-3
Формат/Информация : Audio Coding 3
Расширение режима : CM (complete main)
Параметр Endianness формата : Big
Идентификатор кодека : A_AC3
Продолжительность : 1 ч. 26 м.
Вид битрейта : Постоянный
Битрейт : 640 Кбит/сек
Каналы : 6 каналов
Расположение каналов : Front: L C R, Side: L R, LFE
Частота : 48,0 КГц
Битовая глубина : 16 бит
Метод сжатия : С потерями
Размер потока : 398 Мбайт (4%)
Язык : Russian
Default : Да
Forced : Нет
Аудио #2
Идентификатор : 3
Формат : AC-3
Формат/Информация : Audio Coding 3
Расширение режима : CM (complete main)
Параметр Endianness формата : Big
Идентификатор кодека : A_AC3
Продолжительность : 1 ч. 26 м.
Вид битрейта : Постоянный
Битрейт : 640 Кбит/сек
Каналы : 6 каналов
Расположение каналов : Front: L C R, Side: L R, LFE
Частота : 48,0 КГц
Битовая глубина : 16 бит
Метод сжатия : С потерями
Размер потока : 398 Мбайт (4%)
Язык : Ukrainian
Default : Нет
Forced : Нет
Аудио #3
Идентификатор : 4
Формат : DTS
Формат/Информация : Digital Theater Systems
Идентификатор кодека : A_DTS
Продолжительность : 1 ч. 26 м.
Вид битрейта : Постоянный
Битрейт : 1510 Кбит/сек
Каналы : 6 каналов
Расположение каналов : Front: L C R, Side: L R, LFE
Частота : 48,0 КГц
Битовая глубина : 24 бит
Метод сжатия : С потерями
Размер потока : 939 Мбайт (10%)
Язык : English
Default : Нет
Forced : Нет
На встроенных ТВ-плейерах показывать НЕ будет!!!
Остальные раздачи этого фильма (3)
Благодарности релизеру (7)

Торрент:

Статус:

Размер:

Зарегистрирован   [ 2013-02-28 20:08 ]

проверено

8.79 GB

 
 Мнение о фильме (15)





"Релиз на DVD и Blu-Ray: 5 февраля 2013"
А откуда он тут? Или пиратка и не стоит качать?
 

Pendalf сам то понял что сказал?
 

Фильм посмотреть можно. Детям от 12+ думаю будет интересно.
 

Чушьььььььььь!Особенно разозлило что он еще и черно-белый,,,,,,Кому хватило ума зделать мульт без цвета?Да еше и в три де-Яркие цвета -это же основное в мультфильмах,,,,,,,
 

Кому хватило ума
Тим Бёртон такой затейник... :)
 

2012 — Премия кружка кинокритиков Нью-Йорка за лучший анимационный фильм.
2012 — Номинация Золотой глобус 2013 — Лучший анимационный фильм.
Очень классный, атмосферный мультик.
Это не простая штамповка, давно такого не видел.
 

Думаю в цвете все-таки в разы интереснее смотрелся бы. А так к несчастью заснул за 40 минут до конца( Но в финале проснулся)
 

Не, не понимаю черно-белые творения, прохожу мимо.
 

Небольшой СПОЙЛЕР
Неплохо получилось - идея чб именно для данной картины подходит идеально, но 3д не украсило картину, стоило начинать смотреть обычную версию. Сам мультфильм немного огорчил, начиналось все хорошо, а вот непонятная концовка с черепахой-годзилой - wtf!?, поэтому 6.
 

Сам по себе мультик это "кладбище домашних животных" переснятое для детей.....
Единтвенно, что понрвилось это глубина 3D....
 

Мульт вообще как пародия: Франкенштейн, Годзила, Гремлины, Кладбище домашних животных. За релиз спасибо, один раз смотреть можно, из-за 3d.
 

Любимый мульт 7-ми летней дочери :) Столько чувств в одном мульте ещё не встречал. Специально зарегистрировался здесь только из-за него.
 

Угу, надо еще черно белые фильмы снимать с артефактами старой кинопленки и без звука, глядишь премию какую нибудь дадут.
 

Народ как скачать? у меня нет ссылки на скачивание....
 

Отличный мультик со смыслом! Много "чёрного юмора", ну и собственно все герои похожи на мертвецов, хотя вроде бы живы :) А вообще, это история друзей - мальчика и пса - которая продолжалась и после смерти питомца. Акт преданности в финале довел меня до слез, честно... На телеке просто идеально чистая объемная картинка, ощущается эффект погружения в мрачную атмосферу городка. От первого шага черепашки Шелли, обратившейся в Годзиллу (или, правильнее, Тортиллу) я даж вздрогнул :)))