Торренты   
 
 


Болт и Блип спешат на помощь / Bolt & Blip: Battle of the Lunar League (Питер Лепениотис / Peter Lepeniotis, Тим Дикон / Tim Deacon) [2012, Мультфильм, фантастика, приключения, семейный, HDTV 1080i, Anamorph SideBySide]

Рейтинг 3D:
3 голосов
4.7
Рейтинг фильма:
2 голосов
2.0
 
Вы должны быть авторизированы,
чтобы ставить оценки


Болт и Блип спешат на помощь
Bolt & Blip: Battle of the Lunar League- Год выпуска: 2012
Страна: Корея Южная, Канада
Жанр: Мультфильм, фантастика, приключения, семейный
Продолжительность: 01:13:37
Перевод: Профессиональный (полное дублирование)
-Режиссеры: Питер Лепениотис / Peter Lepeniotis, Тим Дикон / Tim Deacon
Роли озвучивали: Мэтт Мюррэй, Терри Макгуррин, Мелисса Альтро, Гленн Колсон, Патрик Гэрроу, Дуэйн Хилл, Мартин Жюльен, Пол Уэнсли, Колин Фокс, Джонатан Уилсон
-Описание: 2080 год, Земля. Благодаря стараниям гениального ученого Доктора Томми на планете прекратились все войны и люди стали жить без забот! В это время на Луне роботы Болт и Блип случайно становятся членами спортивной команды «Роботы грома», которая находится на последней строчке в турнирной таблице игр Лунной Лиги. С помощью своих новых друзей Болт и Блип становятся чемпионами Лиги. Но они вдруг узнают, что Луне и Земле угрожает заклятый враг Доктора Томми — Доктор Блад. «Роботам грома» предстоит нарушить планы Доктора Блада по завоеванию вселенной и спасти Землю и Луну от уничтожения- -Формат 3D: Anamorph SideBySide / Горизонтальная анаморфная стереопара
Порядок ракурсов: Левый ракурс первый
- Качество: HDTV 1080i
Формат: MPEG-TS
Видео кодек: AVC
Аудио кодек: AC3
Видео: AVC 1920x1080i 25.000 fps 8 246 Kbps
Аудио: Russian : AC3 48.0 KHz 2 channels 448 kbps
-

Mediainfo


General #1
ID : 1 (0x1)
Complete name : D:\Downloads\Bolt & Blip Battle of the Lunar League (3D)2012.halfSBS (Solaris).ts
Format : MPEG-TS
File size : 4.71 GiB
Duration : 1h 13mn
Overall bit rate mode : Variable
Overall bit rate : 9 151 Kbps
Maximum Overall bit rate : 35.5 Mbps
Video #4113
ID : 4113 (0x1011)
Menu ID : 1 (0x1)
Format : AVC
Format/Info : Advanced Video Codec
Format profile : Main@L4.0
Format settings, CABAC : Yes
Format settings, ReFrames : 3 frames
Codec ID : 27
Duration : 1h 13mn
Bit rate mode : Variable
Bit rate : 8 246 Kbps
Maximum bit rate : 40.0 Mbps
Width : 1 920 pixels
Height : 1 080 pixels
Display aspect ratio : 16:9
Frame rate : 25.000 fps
Standard : Component
Color space : YUV
Chroma subsampling : 4:2:0
Bit depth : 8 bits
Scan type : Interlaced
Scan order : Top Field First
Bits/(Pixel*Frame) : 0.159
Stream size : 4.24 GiB (90%)
Color primaries : BT.709-5, BT.1361, IEC 61966-2-4, SMPTE RP177
Transfer characteristics : BT.709-5, BT.1361
Matrix coefficients : BT.709-5, BT.1361, IEC 61966-2-4 709, SMPTE RP177
Audio #4352
ID : 4352 (0x1100)
Menu ID : 1 (0x1)
Format : AC-3
Format/Info : Audio Coding 3
Mode extension : CM (complete main)
Codec ID : 129
Duration : 1h 13mn
Bit rate mode : Constant
Bit rate : 448 Kbps
Channel(s) : 2 channels
Channel positions : Front: L R
Sampling rate : 48.0 KHz
Bit depth : 16 bits
Compression mode : Lossy
Delay relative to video : -219ms
Stream size : 236 MiB (5%)
Language : Russian

Скриншоты

-© Design by Solaris
Благодарности релизеру (19)

Торрент:

Статус:

Размер:

Зарегистрирован   [ 2013-03-01 04:35 ]

проверено

4.71 GB