Торренты   
 
 

 

Огонь Кристиана Лубутена в 3Д, Трейлер / FEU: Crazy Horse Paris in 3D, Trailer [2012 г., DCPrip, Anamorph OverUnder]

Рейтинг 3D:
3 голосов
7.0
Рейтинг фильма:
3 голосов
7.0
 
Вы должны быть авторизированы,
чтобы ставить оценки


Огонь Кристиана Лубутена в 3Д, Трейлер
FEU: Crazy Horse Paris in 3D, Trailer
--Год выпуска: 2012
Страна: Франция
Жанр: документальный, мюзикл, ...
Продолжительность: 00:01:07--Описание: Знаменитый создатель туфель с красной подошвой ставит шоу в известном парижском клубе «CRAZY HORSE PARIS». По словам самого Лубутена, танцеальные номера в парижском кабаре «это памятник, памятник танцу, фантастическая идея праздника для женщин от женщин».--Формат 3d: Anamorph OverUnder (левый ракурс верхний)
Качество: DCPrip
Контейнер: mkv
Видео: AVC / 1920х1080 / 24 fps / 7909 Kbps
Аудио:
AC3 / 2 ch / 640 Kbps / 48 KHz--

MediaInfo:

Код:
General
Unique ID                      : 209167827708003316737177330313866186309 (0x9D5C421E8AA45697AE015EFC154B0E45)
Complete name                  : L:\_3D\3D-Trailers\_2013\Trailer_FEU.CrazyHorseParis(3D)HalfOU-abq.mkv
Format                         : Matroska
Format version                 : Version 2
File size                      : 69.7 MiB
Duration                       : 1mn 7s
Overall bit rate               : 8 722 Kbps
Encoded date                   : UTC 2013-03-01 17:24:59
Writing application            : mkvmerge v4.0.0 ('The Stars were mine') сборка от Jun  6 2010 16:18:42
Writing library                : libebml v1.0.0 + libmatroska v1.0.0
Video
ID                             : 1
Format                         : AVC
Format/Info                    : Advanced Video Codec
Format profile                 : High@L4.1
Format settings, CABAC         : Yes
Format settings, ReFrames      : 4 frames
Codec ID                       : V_MPEG4/ISO/AVC
Duration                       : 1mn 7s
Bit rate                       : 7 909 Kbps
Width                          : 1 920 pixels
Height                         : 1 080 pixels
Display aspect ratio           : 16:9
Frame rate mode                : Constant
Frame rate                     : 24.000 fps
Color space                    : YUV
Chroma subsampling             : 4:2:0
Bit depth                      : 8 bits
Scan type                      : Progressive
Bits/(Pixel*Frame)             : 0.159
Stream size                    : 63.2 MiB (91%)
Writing library                : x264 core 116 r2074 2641b9e
Encoding settings              : cabac=1 / ref=4 / deblock=1:-3:-3 / analyse=0x3:0x113 / me=umh / subme=9 / psy=1 / psy_rd=1.00:0.15 / mixed_ref=1 / me_range=16 / chroma_me=1 / trellis=2 / 8x8dct=1 / cqm=0 / deadzone=21,11 / fast_pskip=1 / chroma_qp_offset=-3 / threads=6 / sliced_threads=0 / nr=0 / decimate=1 / interlaced=0 / bluray_compat=0 / constrained_intra=0 / bframes=6 / b_pyramid=2 / b_adapt=2 / b_bias=0 / direct=3 / weightb=1 / open_gop=0 / weightp=2 / keyint=240 / keyint_min=24 / scenecut=40 / intra_refresh=0 / rc_lookahead=60 / rc=crf / mbtree=1 / crf=16.0 / qcomp=0.60 / qpmin=0 / qpmax=69 / qpstep=4 / vbv_maxrate=40000 / vbv_bufsize=40000 / crf_max=0.0 / nal_hrd=none / frame-packing=4 / ip_ratio=1.40 / aq=1:0.70
Language                       : English
Default                        : No
Forced                         : No
Audio
ID                             : 2
Format                         : AC-3
Format/Info                    : Audio Coding 3
Mode extension                 : CM (complete main)
Format settings, Endianness    : Big
Codec ID                       : A_AC3
Duration                       : 1mn 7s
Bit rate mode                  : Constant
Bit rate                       : 640 Kbps
Channel(s)                     : 2 channels
Channel positions              : Front: L R
Sampling rate                  : 48.0 KHz
Bit depth                      : 16 bits
Compression mode               : Lossy
Stream size                    : 5.11 MiB (7%)
Language                       : English
Default                        : No
Forced                         : No

Скриншоты

Благодарности релизеру (10)

Торрент:

Статус:

Размер:

Зарегистрирован   [ 2013-03-01 23:18 ]

проверено

70 MB