Торренты   
 
 

 

Университет монстров в 3Д, Трейлер №2 / Monsters University 3D, Trailer №2 [2013 г., DCPrip, Anamorph OverUnder]

Рейтинг 3D:
3 голосов
8.7
Рейтинг фильма:
4 голосов
9.5
 
Вы должны быть авторизированы,
чтобы ставить оценки


Университет монстров в 3Д, Трейлер №2
Monsters University 3D, Trailer №2
--Год выпуска: 2013
Страна: США
Жанр: мультфильм, фэнтези, комедия, приключения, семейный
Продолжительность: 00:02:23--Описание: Майк и Салли – самые опытные пугатели в Монстрополисе, но так было далеко не всегда. Когла они встретились впервые, эти совершенно непохожие друг на друга монстры терпеть друг друга не могли. «УНИВЕРСИТЕТ МОНСТРОВ» - история о том, как наши старые знакомые прошли путь от взаимной неприязни к крепкой дружбе.--Доп. инфо: Первый трейлер находится >>>ЗДЕСЬ<<<--Формат 3d: Anamorph OverUnder (левый ракурс верхний)
Качество: DCPrip
Контейнер: mkv
Видео: AVC / 1920х1080 / 24 fps / 9175 Kbps
Аудио: Русский / AC3 / 6 ch / 448 Kbps / 48 KHz--

MediaInfo&#58;

Код:
General
Unique ID                      : 187140020967004594668835699735044706488 (0x8CC9DB657D614D97AED81C9E6A6A50B8)
Complete name                  : L:\_3D\3D-Trailers\_2013\Trailer2_MonstersUniversity(3D)HalfOU-abq.mkv
Format                         : Matroska
Format version                 : Version 2
File size                      : 167 MiB
Duration                       : 2mn 22s
Overall bit rate               : 9 819 Kbps
Encoded date                   : UTC 2013-03-01 21:08:34
Writing application            : mkvmerge v4.0.0 ('The Stars were mine') сборка от Jun  6 2010 16:18:42
Writing library                : libebml v1.0.0 + libmatroska v1.0.0
Video
ID                             : 1
Format                         : AVC
Format/Info                    : Advanced Video Codec
Format profile                 : High@L4.1
Format settings, CABAC         : Yes
Format settings, ReFrames      : 4 frames
Codec ID                       : V_MPEG4/ISO/AVC
Duration                       : 2mn 22s
Bit rate                       : 9 175 Kbps
Width                          : 1 920 pixels
Height                         : 1 080 pixels
Display aspect ratio           : 16:9
Frame rate mode                : Constant
Frame rate                     : 24.000 fps
Color space                    : YUV
Chroma subsampling             : 4:2:0
Bit depth                      : 8 bits
Scan type                      : Progressive
Bits/(Pixel*Frame)             : 0.184
Stream size                    : 156 MiB (93%)
Writing library                : x264 core 116 r2074 2641b9e
Encoding settings              : cabac=1 / ref=4 / deblock=1:-3:-3 / analyse=0x3:0x113 / me=umh / subme=9 / psy=1 / psy_rd=1.00:0.15 / mixed_ref=1 / me_range=16 / chroma_me=1 / trellis=2 / 8x8dct=1 / cqm=0 / deadzone=21,11 / fast_pskip=1 / chroma_qp_offset=-3 / threads=6 / sliced_threads=0 / nr=0 / decimate=1 / interlaced=0 / bluray_compat=0 / constrained_intra=0 / bframes=6 / b_pyramid=2 / b_adapt=2 / b_bias=0 / direct=3 / weightb=1 / open_gop=0 / weightp=2 / keyint=240 / keyint_min=24 / scenecut=40 / intra_refresh=0 / rc_lookahead=60 / rc=crf / mbtree=1 / crf=18.0 / qcomp=0.60 / qpmin=0 / qpmax=69 / qpstep=4 / vbv_maxrate=40000 / vbv_bufsize=40000 / crf_max=0.0 / nal_hrd=none / frame-packing=4 / ip_ratio=1.40 / aq=1:0.70
Language                       : English
Default                        : No
Forced                         : No
Audio
ID                             : 2
Format                         : AC-3
Format/Info                    : Audio Coding 3
Mode extension                 : CM (complete main)
Format settings, Endianness    : Big
Codec ID                       : A_AC3
Duration                       : 2mn 22s
Bit rate mode                  : Constant
Bit rate                       : 448 Kbps
Channel(s)                     : 6 channels
Channel positions              : Front: L C R, Side: L R, LFE
Sampling rate                  : 48.0 KHz
Bit depth                      : 16 bits
Compression mode               : Lossy
Stream size                    : 7.62 MiB (5%)
Language                       : Russian
Default                        : Yes
Forced                         : No

Скриншоты

Благодарности релизеру (13)

Торрент:

Статус:

Размер:

Зарегистрирован   [ 2013-03-02 01:29 ]

проверено

167 MB