Торренты   
 
 

 

Хрaнитeли снoв / Risе оf the Guаrdiаns (Питeр Pэмси / Pеtеr Rаmsеy) [2012 г., Anamorph OverUnder]

Рейтинг 3D:
118 голосов
8.8
Рейтинг фильма:
118 голосов
8.5
 
Вы должны быть авторизированы,
чтобы ставить оценки


Хpaнители снoв 3Д/Risе оf the Guаrdiаns 3D«Naughty, nice. You better believe.»
Год выпуска: 2012
Страна: США (DreamWorks Animation SKG)
Жанр: Мультфильм, Фэнтези, Приключения, Семейный
Продолжительность: 01:37:11
Перевод: Дубляж (чистый звук)
Режиссер: Питeр Pэмси / Pеtеr Rаmsеy
В ролях:
Ледяной Джек - Крис Пайн (Тимур Родригез)
Северянин - Алек Болдуин (Александр Новиков)
Кромешник - Джуд Лоу (Сергей Смирнов)
Зубная фея - Айла Фишер (Кристина Асмус)
Кролик - Хью Джекман (Даниил Эльдаров)
Джеми Беннетт - Дакота Гойо
Калеб - Хамани Гриффин
Клод - Камиль МакФедден
Описание:
Когда злой дух Кромешник посягает на самое дорогое — детские мечты, Северянин, Ледяной Джек, Кролик, Зубная Фея и Песочный Человек впервые объединяются, чтобы создать команду Хранителей снов…--Качество: BDrip
Контейнер: MKV
Формат 3D: Anamorph OverUnder / Вертикальная анаморфная стереопара
Порядок ракурсов: левый ракурс первый
Видео кодек: x264
Аудио кодек: AC3-Видео: AVC / 23,976 fps / 1920х1080p / 11,8 Mbps
Аудио 1: - Русский / AC3 / 48 KHz / 5.1 ch / 448 Kbps Дубляж - (чистый звук)
Аудио 2: - Английский
/ AC3 / 48 KHz / 5.1 ch / 640 Kbps
Субтитры внешние SRT (UTF-8):
#1 - Русские Полные
#2 - English Full
#3 - English SDH
#4 - English Commentary

MediaInfo

Общее
Уникальный идентификатор : 194681399649300014079836856158682458511 (0x92764612833CC5D6ACD2C7357AF9A98F)
Полное имя : E:\3Д мультики\RiseOfTheGuardians(3D)2012.halfOU(m@rik05)ClearSound\Risе of the Guаrdiаns (3D)2012.BDRip.1080p.Half OU.x264.AC3 Rus.3D-RuGroup.(m@rik05).mkv
Формат : Matroska
Версия формата : Version 2
Размер файла : 8,92 Гбайт
Продолжительность : 1 ч. 37 м.
Общий поток : 13,1 Мбит/сек
Название фильма : Rise of the Guardians 3D (2012) 3D-RuGroup (m@rik05)
Дата кодирования : UTC 2013-03-03 11:28:21
Программа кодирования : mkvmerge v3.4.0 ('Rapunzel') сборка от May 15 2010 09:38:20
Библиотека кодирования : libebml v0.8.0 + libmatroska v0.9.0
Видео
Идентификатор : 1
Формат : AVC
Формат/Информация : Advanced Video Codec
Профиль формата : High@L4.1
Параметр CABAC формата : Да
Параметр ReFrames формата : 4 кадра
Идентификатор кодека : V_MPEG4/ISO/AVC
Продолжительность : 1 ч. 37 м.
Битрейт : 11,8 Мбит/сек
Ширина : 1920 пикселей
Высота : 1080 пикселей
Соотношение сторон : 16:9
Режим частоты кадров : Постоянный
Частота кадров : 23,976 кадра/сек
Цветовое пространство : YUV
Субдискретизация насыщенности : 4:2:0
Битовая глубина : 8 бит
Тип развёртки : Прогрессивная
Бит/(Пиксели*Кадры) : 0.237
Размер потока : 8,01 Гбайт (90%)
Заголовок : BDrip by m@rik05
Библиотека кодирования : x264 core 116 r2074 2641b9e
Настройки программы : cabac=1 / ref=4 / deblock=1:-3:-3 / analyse=0x3:0x133 / me=umh / subme=9 / psy=1 / psy_rd=1.00:0.05 / mixed_ref=1 / me_range=16 / chroma_me=1 / trellis=2 / 8x8dct=1 / cqm=0 / deadzone=21,11 / fast_pskip=1 / chroma_qp_offset=-3 / threads=12 / sliced_threads=0 / nr=0 / decimate=1 / interlaced=0 / bluray_compat=0 / constrained_intra=0 / bframes=6 / b_pyramid=2 / b_adapt=2 / b_bias=0 / direct=3 / weightb=1 / open_gop=0 / weightp=2 / keyint=250 / keyint_min=23 / scenecut=40 / intra_refresh=0 / rc_lookahead=60 / rc=crf / mbtree=1 / crf=17.0 / qcomp=0.70 / qpmin=10 / qpmax=51 / qpstep=4 / vbv_maxrate=40000 / vbv_bufsize=30000 / crf_max=0.0 / nal_hrd=none / frame-packing=4 / ip_ratio=1.40 / aq=1:0.70
Язык : English
Default : Нет
Forced : Нет
Аудио #1
Идентификатор : 2
Формат : AC-3
Формат/Информация : Audio Coding 3
Расширение режима : CM (complete main)
Параметр Endianness формата : Big
Идентификатор кодека : A_AC3
Продолжительность : 1 ч. 37 м.
Вид битрейта : Постоянный
Битрейт : 448 Кбит/сек
Каналы : 6 каналов
Расположение каналов : Front: L C R, Side: L R, LFE
Частота : 48,0 КГц
Битовая глубина : 16 бит
Метод сжатия : С потерями
Размер потока : 311 Мбайт (3%)
Заголовок : AC3 / 5.1 ch / 448 kbps / дубляж(чистый звук)
Язык : Russian
Default : Да
Forced : Нет
Аудио #2
Идентификатор : 3
Формат : AC-3
Формат/Информация : Audio Coding 3
Расширение режима : CM (complete main)
Параметр Endianness формата : Big
Идентификатор кодека : A_AC3
Продолжительность : 1 ч. 37 м.
Вид битрейта : Постоянный
Битрейт : 640 Кбит/сек
Каналы : 6 каналов
Расположение каналов : Front: L C R, Side: L R, LFE
Частота : 48,0 КГц
Битовая глубина : 16 бит
Метод сжатия : С потерями
Размер потока : 445 Мбайт (5%)
Заголовок : AC3 / 5/1 ch / 640 kbps / original
Язык : English
Default : Нет
Forced : Нет
Меню
00:00:00.000 : en:00:00:00.000
00:03:51.481 : en:00:03:51.481
00:10:34.843 : en:00:10:34.843
00:16:17.643 : en:00:16:17.643
00:24:49.363 : en:00:24:49.363
00:30:38.378 : en:00:30:38.378
00:36:38.947 : en:00:36:38.947
00:43:05.166 : en:00:43:05.166
00:50:22.311 : en:00:50:22.311
00:58:09.611 : en:00:58:09.611
01:03:55.331 : en:01:03:55.331
01:09:12.815 : en:01:09:12.815
01:14:03.189 : en:01:14:03.189
01:20:44.923 : en:01:20:44.923
01:24:51.503 : en:01:24:51.503
01:28:33.892 : en:01:28:33.892

Скриншоты

Остальные раздачи этого фильма (3)
Благодарности релизеру (66)

Торрент:

Статус:

Размер:

Зарегистрирован   [ 2013-03-03 16:08 ]

проверено

8.92 GB

 
 Мнение о фильме (32)

1, 2  След.






3D отличное (на вопрос типа: Как 3ДЭ тута)), с удовольствием посмотрели, хоть брал не отсюда, все равно Спасибо))
 

я тоже брала не отсюда, но могу сказать ,что мультик ох...ый ,специально ждала 3д (лет с 10 можно смотреть , он страшный )
 
евгения мурашко Профиль 04-Мар-2013 02:32

евгения мурашко, я тоже брала не отсюда, а где если не секрет?Ни stels там случайно раздающий был?:-D Если да,то я тоже там скачала.
 

что 3Д, что мультфильм-просто на высоте)
 

Спасибо! Получил огромное удовольствие после просмотра мультфильма!
Все- на высоте!)
 

Пожалуй, лучшего 3D я ещё не видел!
 

отличный фильм! приятно, что для детей делают такие интересные мультфильмы.. да что там дети?!, тут третий десяток скоро разменяю, а смотрю все эти мультики в 3D с большим интересом ))
однозначно в коллекцию! спасибо сайту и в частности залившему!
 

Спасибо за мульт, нам сыном очень понравилось!
 
девочка на облаке Профиль 10-Мар-2013 14:30

Спасибо,классный мультик!!!
 

это - волшебно! спаибо волшебнику - релизеру
 

Шикарнейший мультфильм, можно смотреть и смотреть!!!!! Офигительное 3D, офигенно яркий мультфильм, захватывающий сюжет, чумовые герои. Качайте не пожалеете, море эмоций и вылетов 3D обеспеченно!!!!!!
 

Детки в восторге))))))))))))))))))))))))))))
 
невмятуллина Профиль 20-Мар-2013 21:07

Спасибо! смотрела мульт в 2д понравился и с удовольствием пересмотрю его в 3д))
 

Спасибо! Добрый, отличный мультфильм! 3D - супер!
 

Сам мульт прикольный и съемка 3D нормальная.
Мульты в основном снимаются компьютерный графикой и при соблюдении пролакса эффект 3D выходят более эффективней, чем при съемке фильмов, где операторы часто химичат снимая одной камерай, а потом доводят эффекты на компьютерах.
 

Не могу посмотреть не на телевизоре пишет недоступный файл не на блурэй проигрывателе пишет недоступное разрешение посоветуйте что ни буть?
 

Не могу посмотреть не на телевизоре пишет недоступный файл не на блурэй проигрывателе пишет недоступное разрешение посоветуйте что ни буть?
это вертикальная стереопара с разрешением 1920х2160р,для просмотра на пк или медиаплееров с поддержкой "полноразмеров"
смотрите с пк или качайте анаморфные (half) стереопары с разрешением 1920х1080р
 

А через какую программу смотреть на пк стоит CyberLink PowerDVD 10 не знаю как переключить чтоб экран не был раздвоен телевизор 3Д подключен к компьютер а как заставить его показывать 3д
 

3D поставлено просто отлично! По сюжету хоть и сказочка для детей, но смотрится очень приятно и "эпично". На телевизорах обязано работать, не знаю, почему у некоторых проблемы. Спасибо!
 

А через какую программу смотреть на пк стоит CyberLink PowerDVD 10 не знаю как переключить чтоб экран не был раздвоен телевизор 3Д подключен к компьютер а как заставить его показывать 3д
программный плеер вообще то не имеет значения,нажми на пульте тв кнопку 3д и выбери режим 3д, в данном случаи вертикальный (картинка один,на другом)
 

Страница 1 из 2

1, 2  След.