Торренты   
 
 

 

Хранители снов / Rise of the Guardians (Питер Рэмси) [2012 г., BDRip, Full OverUnder]

Рейтинг 3D:
118 голосов
8.8
Рейтинг фильма:
118 голосов
8.5
 
Вы должны быть авторизированы,
чтобы ставить оценки


Хранители снов / Rise of the Guardians
Год выпуска: 2012
Страна: США
Жанр: Мультфильм, фэнтези, приключения, семейный
Продолжительность: 01:37:11
Перевод: Профессиональный (полное дублирование) "Чистый звук"
Режиссер: Питер Рэмси
В ролях:
Ледяной Джек - Крис Пайн (Тимур Родригез)
Северянин - Алек Болдуин (Александр Новиков)
Кромешник - Джуд Лоу (Сергей Смирнов)
Зубная фея - Айла Фишер (Кристина Асмус)
Кролик - Хью Джекман (Даниил Эльдаров)
Джеми Беннетт - Дакота Гойо
Калеб - Хамани Гриффин
Клод - Камиль МакФедден
Описание: Когда злой дух Кромешник посягает на самое дорогое — детские мечты, Северянин, Ледяной Джек, Кролик, Зубная Фея и Песочный Человек впервые объединяются, чтобы создать команду Хранителей снов…
Релиз группы:
Формат 3D: OverUnder BDRip, Full
Видео: AVC, High@L5.0, 1920x2160, 23.976 fps, 17,4 Мбит/сек
Аудио: Rus,AC-3, 6 каналов, 448 Кбит/сек, 48,0 КГц
Аудио: Eng, AC-3, 6 каналов, 640 Кбит/сек, 48,0 КГц

Скриншоты




MediaInfo

Общее
Уникальный идентификатор : 200067446661799065808208768092658560137 (0x968396B1431B24A3958DC4E544996C89)
Полное имя : E:\STEREO\Rise of the Guardians_1080p_Rip by Dag13.mkv
Формат : Matroska
Версия формата : Version 2
Размер файла : 12,8 Гбайт
Продолжительность : 1 ч. 37 м.
Общий поток : 18,9 Мбит/сек
Дата кодирования : UTC 2013-03-03 16:35:59
Программа кодирования : mkvmerge v3.4.0 ('Rapunzel') сборка от May 15 2010 09:38:20
Библиотека кодирования : libebml v0.8.0 + libmatroska v0.9.0
Видео
Идентификатор : 1
Формат : AVC
Формат/Информация : Advanced Video Codec
Профиль формата : High@L5.0
Параметр CABAC формата : Да
Параметр ReFrames формата : 4 кадра
Идентификатор кодека : V_MPEG4/ISO/AVC
Продолжительность : 1 ч. 37 м.
Битрейт : 17,4 Мбит/сек
Ширина : 1920 пикселей
Высота : 2160 пикселей
Соотношение сторон : 0,889
Режим частоты кадров : Постоянный
Частота кадров : 23,976 кадра/сек
Цветовое пространство : YUV
Субдискретизация насыщенности : 4:2:0
Битовая глубина : 8 бит
Тип развёртки : Прогрессивная
Бит/(Пиксели*Кадры) : 0.175
Размер потока : 11,8 Гбайт (92%)
Заголовок : Rip by Dag13
Библиотека кодирования : x264 core 120 r2145 748fe16
Настройки программы : cabac=1 / ref=4 / deblock=1:-3:-3 / analyse=0x3:0x113 / me=umh / subme=9 / psy=1 / psy_rd=1.00:0.00 / mixed_ref=1 / me_range=16 / chroma_me=1 / trellis=2 / 8x8dct=1 / cqm=0 / deadzone=21,11 / fast_pskip=1 / chroma_qp_offset=-2 / threads=9 / sliced_threads=0 / nr=0 / decimate=1 / interlaced=0 / bluray_compat=0 / constrained_intra=0 / bframes=6 / b_pyramid=2 / b_adapt=2 / b_bias=0 / direct=3 / weightb=1 / open_gop=0 / weightp=2 / keyint=250 / keyint_min=23 / scenecut=40 / intra_refresh=0 / rc_lookahead=60 / rc=crf / mbtree=1 / crf=18.0 / qcomp=0.60 / qpmin=1 / qpmax=69 / qpstep=4 / ip_ratio=1.40 / aq=1:1.00
Язык : English
Default : Нет
Forced : Нет
Аудио #1
Идентификатор : 2
Формат : AC-3
Формат/Информация : Audio Coding 3
Расширение режима : CM (complete main)
Параметр Endianness формата : Big
Идентификатор кодека : A_AC3
Продолжительность : 1 ч. 37 м.
Вид битрейта : Постоянный
Битрейт : 448 Кбит/сек
Каналы : 6 каналов
Расположение каналов : Front: L C R, Side: L R, LFE
Частота : 48,0 КГц
Битовая глубина : 16 бит
Метод сжатия : С потерями
Размер потока : 311 Мбайт (2%)
Язык : Russian
Default : Да
Forced : Нет
Аудио #2
Идентификатор : 3
Формат : AC-3
Формат/Информация : Audio Coding 3
Расширение режима : CM (complete main)
Параметр Endianness формата : Big
Идентификатор кодека : A_AC3
Продолжительность : 1 ч. 37 м.
Вид битрейта : Постоянный
Битрейт : 640 Кбит/сек
Каналы : 6 каналов
Расположение каналов : Front: L C R, Side: L R, LFE
Частота : 48,0 КГц
Битовая глубина : 16 бит
Метод сжатия : С потерями
Размер потока : 445 Мбайт (3%)
Язык : English
Default : Нет
Forced : Нет
На встроенных ТВ-плейерах показывать НЕ будет!!!
Остальные раздачи этого фильма (3)
Благодарности релизеру (23)

Торрент:

Статус:

Размер:

Зарегистрирован   [ 2013-03-03 21:10 ]

проверено

12.82 GB

 
 Мнение о фильме (32)

1, 2  След.






3D отличное (на вопрос типа: Как 3ДЭ тута)), с удовольствием посмотрели, хоть брал не отсюда, все равно Спасибо))
 

я тоже брала не отсюда, но могу сказать ,что мультик ох...ый ,специально ждала 3д (лет с 10 можно смотреть , он страшный )
 
евгения мурашко Профиль 04-Мар-2013 02:32

евгения мурашко, я тоже брала не отсюда, а где если не секрет?Ни stels там случайно раздающий был?:-D Если да,то я тоже там скачала.
 

что 3Д, что мультфильм-просто на высоте)
 

Спасибо! Получил огромное удовольствие после просмотра мультфильма!
Все- на высоте!)
 

Пожалуй, лучшего 3D я ещё не видел!
 

отличный фильм! приятно, что для детей делают такие интересные мультфильмы.. да что там дети?!, тут третий десяток скоро разменяю, а смотрю все эти мультики в 3D с большим интересом ))
однозначно в коллекцию! спасибо сайту и в частности залившему!
 

Спасибо за мульт, нам сыном очень понравилось!
 
девочка на облаке Профиль 10-Мар-2013 14:30

Спасибо,классный мультик!!!
 

это - волшебно! спаибо волшебнику - релизеру
 

Шикарнейший мультфильм, можно смотреть и смотреть!!!!! Офигительное 3D, офигенно яркий мультфильм, захватывающий сюжет, чумовые герои. Качайте не пожалеете, море эмоций и вылетов 3D обеспеченно!!!!!!
 

Детки в восторге))))))))))))))))))))))))))))
 
невмятуллина Профиль 20-Мар-2013 21:07

Спасибо! смотрела мульт в 2д понравился и с удовольствием пересмотрю его в 3д))
 

Спасибо! Добрый, отличный мультфильм! 3D - супер!
 

Сам мульт прикольный и съемка 3D нормальная.
Мульты в основном снимаются компьютерный графикой и при соблюдении пролакса эффект 3D выходят более эффективней, чем при съемке фильмов, где операторы часто химичат снимая одной камерай, а потом доводят эффекты на компьютерах.
 

Не могу посмотреть не на телевизоре пишет недоступный файл не на блурэй проигрывателе пишет недоступное разрешение посоветуйте что ни буть?
 

Не могу посмотреть не на телевизоре пишет недоступный файл не на блурэй проигрывателе пишет недоступное разрешение посоветуйте что ни буть?
это вертикальная стереопара с разрешением 1920х2160р,для просмотра на пк или медиаплееров с поддержкой "полноразмеров"
смотрите с пк или качайте анаморфные (half) стереопары с разрешением 1920х1080р
 

А через какую программу смотреть на пк стоит CyberLink PowerDVD 10 не знаю как переключить чтоб экран не был раздвоен телевизор 3Д подключен к компьютер а как заставить его показывать 3д
 

3D поставлено просто отлично! По сюжету хоть и сказочка для детей, но смотрится очень приятно и "эпично". На телевизорах обязано работать, не знаю, почему у некоторых проблемы. Спасибо!
 

А через какую программу смотреть на пк стоит CyberLink PowerDVD 10 не знаю как переключить чтоб экран не был раздвоен телевизор 3Д подключен к компьютер а как заставить его показывать 3д
программный плеер вообще то не имеет значения,нажми на пульте тв кнопку 3д и выбери режим 3д, в данном случаи вертикальный (картинка один,на другом)
 

Страница 1 из 2

1, 2  След.