Торренты   
 
 

 

Хрaнитeли снoв / Risе оf the Guаrdiаns [2012, BDrip, half1080p, Anamorph SideBySide]

Рейтинг 3D:
118 голосов
8.8
Рейтинг фильма:
118 голосов
8.5
 
Вы должны быть авторизированы,
чтобы ставить оценки


Хрaнитeли снoв / Risе оf the Guаrdiаns
Год выпуска: 2012
Страна: США (DreamWorks Animation SKG)
Жанр: Мультфильм, Фэнтези, Приключения, Семейный
Продолжительность: 01:37:11
Перевод: Дубляж - BD CEE
Режиссер: Питeр Pэмси
Роли озвучивали и дублировали:
Ледяной Джек - Крис Пайн (Тимур Родригез)
Северянин - Алек Болдуин (Александр Новиков)
Кромешник - Джуд Лоу (Сергей Смирнов)
Зубная фея - Айла Фишер (Кристина Асмус)
Кролик - Хью Джекман (Даниил Эльдаров)
Джеми Беннетт - Дакота Гойо
Калеб - Хамани Гриффин
Клод - Камиль МакФедден
Описание:
Когда злой дух Кромешник посягает на самое дорогое — детские мечты, Северянин, Ледяной Джек, Кролик, Зубная Фея и Песочный Человек впервые объединяются, чтобы создать команду Хранителей снов…
Качество: BDrip by Alexman©
Формат 3D: Anamorph SideBySide / Горизонтальная анаморфная стереопара
Порядок ракурсов: левый ракурс первый
Видео: MPEG4 AVC, 12.4 Mbps, 1920x1080, 23.976 кадр/с
Аудио №1: Русский дублированный перевод / AC3 / 48 KHz / 5.1 ch / 640 Kbps (Дубляж - BD CEE)
Аудио №2: Украинский дублированный перевод / AC3 / 48 KHz / 5.1 ch / 640 Kbps (Дубляж - BD CEE)
Аудио №3: Английский оригинальный / AC3 / 48 KHz / 5.1 ch / 640 Kbps
Субтитры: Русские, украинские, английские - полные вшитые

MediaInfo

General
Unique ID : 217836468890987868411704892704475484601 (0xA3E1C720A1C3E6F4A2D6CAE1F61291B9)
Complete name : Rise of the Guardians [Хранители снов] (2012) DUB hSbS 1080p by Alexman©.mkv
Format : Matroska
Format version : Version 4 / Version 2
File size : 9.93 GiB
Duration : 1h 37mn
Overall bit rate : 14.6 Mbps
Movie name : Rise of the Guardians [Хранители снов]
Encoded date : UTC 2013-03-21 06:13:41
Writing application : mkvmerge v6.1.0 ('Old Devil') built on Mar 2 2013 14:32:37
Writing library : libebml v1.3.0 + libmatroska v1.4.0
Video
ID : 1
Format : AVC
Format/Info : Advanced Video Codec
Format profile : High@L4.1
Format settings, CABAC : Yes
Format settings, ReFrames : 4 frames
Codec ID : V_MPEG4/ISO/AVC
Duration : 1h 37mn
Bit rate : 12.4 Mbps
Width : 1 920 pixels
Height : 1 080 pixels
Display aspect ratio : 16:9
Frame rate mode : Constant
Frame rate : 23.976 fps
Color space : YUV
Chroma subsampling : 4:2:0
Bit depth : 8 bits
Scan type : Progressive
Bits/(Pixel*Frame) : 0.250
Stream size : 8.43 GiB (85%)
Writing library : x264 core 129 r2245 bc13772
Encoding settings : cabac=1 / ref=4 / deblock=1:-3:-3 / analyse=0x3:0x113 / me=umh / subme=9 / psy=1 / psy_rd=1.00:0.15 / mixed_ref=1 / me_range=32 / chroma_me=1 / trellis=2 / 8x8dct=1 / cqm=0 / deadzone=21,11 / fast_pskip=1 / chroma_qp_offset=-3 / threads=6 / lookahead_threads=1 / sliced_threads=0 / nr=0 / decimate=1 / interlaced=0 / bluray_compat=0 / constrained_intra=0 / bframes=4 / b_pyramid=2 / b_adapt=2 / b_bias=0 / direct=3 / weightb=1 / open_gop=0 / weightp=2 / keyint=250 / keyint_min=23 / scenecut=40 / intra_refresh=0 / rc_lookahead=60 / rc=crf / mbtree=1 / crf=16.0 / qcomp=0.60 / qpmin=0 / qpmax=69 / qpstep=4 / vbv_maxrate=40000 / vbv_bufsize=40000 / crf_max=0.0 / nal_hrd=none / ip_ratio=1.40 / aq=1:0.70
Language : English
Default : Yes
Forced : No
Audio #1
ID : 2
Format : AC-3
Format/Info : Audio Coding 3
Mode extension : CM (complete main)
Format settings, Endianness : Big
Codec ID : A_AC3
Duration : 1h 37mn
Bit rate mode : Constant
Bit rate : 640 Kbps
Channel(s) : 6 channels
Channel positions : Front: L C R, Side: L R, LFE
Sampling rate : 48.0 KHz
Bit depth : 16 bits
Compression mode : Lossy
Stream size : 445 MiB (4%)
Title : Русский дублированный
Language : Russian
Default : Yes
Forced : Yes
Audio #2
ID : 3
Format : AC-3
Format/Info : Audio Coding 3
Mode extension : CM (complete main)
Format settings, Endianness : Big
Codec ID : A_AC3
Duration : 1h 37mn
Bit rate mode : Constant
Bit rate : 640 Kbps
Channel(s) : 6 channels
Channel positions : Front: L C R, Side: L R, LFE
Sampling rate : 48.0 KHz
Bit depth : 16 bits
Compression mode : Lossy
Stream size : 445 MiB (4%)
Title : Украинский дублированный
Language : Ukrainian
Default : No
Forced : No
Audio #3
ID : 4
Format : AC-3
Format/Info : Audio Coding 3
Mode extension : CM (complete main)
Format settings, Endianness : Big
Codec ID : A_AC3
Duration : 1h 37mn
Bit rate mode : Constant
Bit rate : 640 Kbps
Channel(s) : 6 channels
Channel positions : Front: L C R, Side: L R, LFE
Sampling rate : 48.0 KHz
Bit depth : 16 bits
Compression mode : Lossy
Stream size : 445 MiB (4%)
Title : English original
Language : English
Default : No
Forced : No
Text #1
ID : 5
Format : UTF-8
Codec ID : S_TEXT/UTF8
Codec ID/Info : UTF-8 Plain Text
Title : Русские полные
Language : Russian
Default : No
Forced : No
Text #2
ID : 6
Format : UTF-8
Codec ID : S_TEXT/UTF8
Codec ID/Info : UTF-8 Plain Text
Title : Украинские полные
Language : Ukrainian
Default : No
Forced : No
Text #3
ID : 7
Format : UTF-8
Codec ID : S_TEXT/UTF8
Codec ID/Info : UTF-8 Plain Text
Title : English full
Language : English
Default : No
Forced : No

Скриншоты



Анимированные скриншоты для оценки 3Д-эффекта



Релиз заменён 21.03.2013г. Желающие могут перекачать торрент.
Причины замены:
1. Русский дубляж заменен на лицензионный
2. Добавлен украинский дубляж
3. Добавлен комплект субтитров (русские, украинские, английские).
Проверено на ТВ Samsung 40C7000 и Samsung 46D7000
Остальные раздачи этого фильма (3)
Благодарности релизеру (56)

Торрент:

Статус:

Размер:

Зарегистрирован   [ 2013-03-21 10:55 ]

проверено

9.93 GB

 
 Мнение о фильме (32)

1, 2  След.






3D отличное (на вопрос типа: Как 3ДЭ тута)), с удовольствием посмотрели, хоть брал не отсюда, все равно Спасибо))
 

я тоже брала не отсюда, но могу сказать ,что мультик ох...ый ,специально ждала 3д (лет с 10 можно смотреть , он страшный )
 
евгения мурашко Профиль 04-Мар-2013 02:32

евгения мурашко, я тоже брала не отсюда, а где если не секрет?Ни stels там случайно раздающий был?:-D Если да,то я тоже там скачала.
 

что 3Д, что мультфильм-просто на высоте)
 

Спасибо! Получил огромное удовольствие после просмотра мультфильма!
Все- на высоте!)
 

Пожалуй, лучшего 3D я ещё не видел!
 

отличный фильм! приятно, что для детей делают такие интересные мультфильмы.. да что там дети?!, тут третий десяток скоро разменяю, а смотрю все эти мультики в 3D с большим интересом ))
однозначно в коллекцию! спасибо сайту и в частности залившему!
 

Спасибо за мульт, нам сыном очень понравилось!
 
девочка на облаке Профиль 10-Мар-2013 14:30

Спасибо,классный мультик!!!
 

это - волшебно! спаибо волшебнику - релизеру
 

Шикарнейший мультфильм, можно смотреть и смотреть!!!!! Офигительное 3D, офигенно яркий мультфильм, захватывающий сюжет, чумовые герои. Качайте не пожалеете, море эмоций и вылетов 3D обеспеченно!!!!!!
 

Детки в восторге))))))))))))))))))))))))))))
 
невмятуллина Профиль 20-Мар-2013 21:07

Спасибо! смотрела мульт в 2д понравился и с удовольствием пересмотрю его в 3д))
 

Спасибо! Добрый, отличный мультфильм! 3D - супер!
 

Сам мульт прикольный и съемка 3D нормальная.
Мульты в основном снимаются компьютерный графикой и при соблюдении пролакса эффект 3D выходят более эффективней, чем при съемке фильмов, где операторы часто химичат снимая одной камерай, а потом доводят эффекты на компьютерах.
 

Не могу посмотреть не на телевизоре пишет недоступный файл не на блурэй проигрывателе пишет недоступное разрешение посоветуйте что ни буть?
 

Не могу посмотреть не на телевизоре пишет недоступный файл не на блурэй проигрывателе пишет недоступное разрешение посоветуйте что ни буть?
это вертикальная стереопара с разрешением 1920х2160р,для просмотра на пк или медиаплееров с поддержкой "полноразмеров"
смотрите с пк или качайте анаморфные (half) стереопары с разрешением 1920х1080р
 

А через какую программу смотреть на пк стоит CyberLink PowerDVD 10 не знаю как переключить чтоб экран не был раздвоен телевизор 3Д подключен к компьютер а как заставить его показывать 3д
 

3D поставлено просто отлично! По сюжету хоть и сказочка для детей, но смотрится очень приятно и "эпично". На телевизорах обязано работать, не знаю, почему у некоторых проблемы. Спасибо!
 

А через какую программу смотреть на пк стоит CyberLink PowerDVD 10 не знаю как переключить чтоб экран не был раздвоен телевизор 3Д подключен к компьютер а как заставить его показывать 3д
программный плеер вообще то не имеет значения,нажми на пульте тв кнопку 3д и выбери режим 3д, в данном случаи вертикальный (картинка один,на другом)
 

Страница 1 из 2

1, 2  След.