Торренты   
 
 

 

Жизнь Пи / Life of Pi [2012, BDrip, half1080p, Anamorph SideBySide]

Рейтинг 3D:
273 голосов
8.3
Рейтинг фильма:
269 голосов
8.3
 
Вы должны быть авторизированы,
чтобы ставить оценки


Жизнь Пи / Life of Pi
Год выпуска: 2012
Страна: США, Тайвань (Fox 2000 Pictures, Dune Entertainment, Ingenious Media)
Жанр: Драма, Приключения
Продолжительность: 02:07:00
Перевод: Профессиональный (полное дублирование)
Режиссер: Энг Ли
В ролях: Сурадж Шарма, Ирфан Кхан, Рейф Сполл, Табу, Адиль Хуссэйн, Жерар Депардье, Аюш Тандон, Гаутам Белур, Аян Кхан, Мохд Аббас Халили и др.
Описание:
Еще одна история "Маугли", которая происходит не в джунглях, а посреди Тихого океана, где по бескрайней водной глади дрейфует лодка со спасшимися после кораблекрушения. Семья решает перебраться жить в Канаду, но корабль терпит крушение. Индийский подросток Пи оказывается на шлюпке посреди океана в компании неожиданного попутчика — грозного бенгальского тигра. Фильм поставлен по одноименной книге Янна Мартелла, за которую автор получил Букеровскую премию.
Качество: BDrip by Alexman©
Формат 3D: Anamorph SideBySide
Порядок ракурсов: Левый ракурс первый
Видео: AVC / 23,976 fps / 1920х1080p / 12.0 Mbps
Аудио 1: Русский дублированный / AC3 / 48 KHz / 5.1 ch / 640 Kbps
Аудио 2: Украинский дублированный / AC3 / 48 KHz / 5.1 ch / 640 Kbps
Аудио 3: Английский оригинальный / AC3 / 48 KHz / 5.1 ch / 640 Kbps
Субтитры: вшитые русские форсированные (+ отдельно), русские полные, украинские полные

MediaInfo

General
Unique ID : 183424850225484783052686890537566157506 (0x89FE575638F3DBF983CF8794B2E53AC2)
Complete name : Life of Pi [Жизнь Пи] (2012) DUB hSbS 1080p by Alexman©.mkv
Format : Matroska
Format version : Version 4 / Version 2
File size : 12.4 GiB
Duration : 2h 6mn
Overall bit rate : 14.0 Mbps
Movie name : Life of Pi [Жизнь Пи]
Encoded date : UTC 2013-03-10 10:39:44
Writing application : mkvmerge v6.1.0 ('Old Devil') built on Mar 2 2013 14:32:37
Writing library : libebml v1.3.0 + libmatroska v1.4.0
Video
ID : 1
Format : AVC
Format/Info : Advanced Video Codec
Format profile : High@L4.1
Format settings, CABAC : Yes
Format settings, ReFrames : 4 frames
Codec ID : V_MPEG4/ISO/AVC
Duration : 2h 6mn
Bit rate : 12.0 Mbps
Width : 1 920 pixels
Height : 1 080 pixels
Display aspect ratio : 16:9
Frame rate mode : Constant
Frame rate : 23.976 fps
Color space : YUV
Chroma subsampling : 4:2:0
Bit depth : 8 bits
Scan type : Progressive
Bits/(Pixel*Frame) : 0.242
Stream size : 10.7 GiB (86%)
Title : Life of Pi [Жизнь Пи]
Writing library : x264 core 129 r2245 bc13772
Encoding settings : cabac=1 / ref=4 / deblock=1:-3:-3 / analyse=0x3:0x113 / me=umh / subme=9 / psy=1 / psy_rd=1.00:0.15 / mixed_ref=1 / me_range=32 / chroma_me=1 / trellis=2 / 8x8dct=1 / cqm=0 / deadzone=21,11 / fast_pskip=1 / chroma_qp_offset=-3 / threads=6 / lookahead_threads=1 / sliced_threads=0 / nr=0 / decimate=1 / interlaced=0 / bluray_compat=0 / constrained_intra=0 / bframes=4 / b_pyramid=2 / b_adapt=2 / b_bias=0 / direct=3 / weightb=1 / open_gop=0 / weightp=2 / keyint=250 / keyint_min=23 / scenecut=40 / intra_refresh=0 / rc_lookahead=60 / rc=crf / mbtree=1 / crf=17.0 / qcomp=0.60 / qpmin=0 / qpmax=69 / qpstep=4 / vbv_maxrate=40000 / vbv_bufsize=40000 / crf_max=0.0 / nal_hrd=none / ip_ratio=1.40 / aq=1:0.70
Language : English
Default : Yes
Forced : No
Audio #1
ID : 2
Format : AC-3
Format/Info : Audio Coding 3
Mode extension : CM (complete main)
Format settings, Endianness : Big
Codec ID : A_AC3
Duration : 2h 6mn
Bit rate mode : Constant
Bit rate : 640 Kbps
Channel(s) : 6 channels
Channel positions : Front: L C R, Side: L R, LFE
Sampling rate : 48.0 KHz
Bit depth : 16 bits
Compression mode : Lossy
Stream size : 581 MiB (5%)
Title : Русский дублированный
Language : Russian
Default : Yes
Forced : Yes
Audio #2
ID : 3
Format : AC-3
Format/Info : Audio Coding 3
Mode extension : CM (complete main)
Format settings, Endianness : Big
Codec ID : A_AC3
Duration : 2h 6mn
Bit rate mode : Constant
Bit rate : 448 Kbps
Channel(s) : 6 channels
Channel positions : Front: L C R, Side: L R, LFE
Sampling rate : 48.0 KHz
Bit depth : 16 bits
Compression mode : Lossy
Stream size : 407 MiB (3%)
Title : Украинский дублированный
Language : Ukrainian
Default : No
Forced : No
Audio #3
ID : 7
Format : AC-3
Format/Info : Audio Coding 3
Mode extension : CM (complete main)
Format settings, Endianness : Big
Codec ID : A_AC3
Duration : 2h 6mn
Bit rate mode : Constant
Bit rate : 640 Kbps
Channel(s) : 6 channels
Channel positions : Front: L C R, Side: L R, LFE
Sampling rate : 48.0 KHz
Bit depth : 16 bits
Compression mode : Lossy
Stream size : 581 MiB (5%)
Title : Original English
Language : English
Default : No
Forced : No
Text #1
ID : 4
Format : UTF-8
Codec ID : S_TEXT/UTF8
Codec ID/Info : UTF-8 Plain Text
Title : Русские форсированные
Language : Russian
Default : Yes
Forced : Yes
Text #2
ID : 5
Format : UTF-8
Codec ID : S_TEXT/UTF8
Codec ID/Info : UTF-8 Plain Text
Title : Русские полные
Language : Russian
Default : No
Forced : No
Text #3
ID : 6
Format : UTF-8
Codec ID : S_TEXT/UTF8
Codec ID/Info : UTF-8 Plain Text
Title : Украинские полные
Language : Ukrainian
Default : No
Forced : No

Скриншоты



Анимированные скриншоты для оценки 3Д-эффекта



Релиз заменён 10.03.2013г. Желающие могут перекачать торрент.
Причины замены:
1. Русский дубляж заменен на лицензионный
2. Добавлен украинский дубляж
3. Добавлен комплект русских и украинских субтитров.
Проверено на ТВ Samsung 40C7000 и Samsung 46D7000
Остальные раздачи этого фильма (3)
Благодарности релизеру (81)

Торрент:

Статус:

Размер:

Зарегистрирован   [ 2013-03-10 16:20 ]

проверено

12.44 GB

 
 Мнение о фильме (97)

Пред.  1, 2, 3, 4, 5  След.






Понравилась, даже очень. 3D на удивление не плохое , сам фильм шикарный, долго собирался его посмотреть и был потрясён увидиным.
 

Всё СУПЕР
 

Стоит не только из-за 3D смотреть. У фильма очень интересная концовка.
 

Фильм очень понравился, 3Д эффекты хорошие, смысл фильма хороший.
 

лично я ожидал большеге от фильма.
 

Просто вышка
 

фильм порадывал
 

Отличный фильм давно таких не смотрел.
 

Почему скорость такая маленькая, свои сервера есть?
 

Сначала скачивает 1,7 мб\с, через пол минуты падает до 1кб\с. Качаю на флэшку. Через 10 минут выключил, пошел искать другие 3dторрент трекеры. Хотя этот хорош, клиента теряем?
 

Фильм понравился. Интересный. 3д эфекты тоже супер.
 

Такого ещё не видали. Супер!
 

Потрясающий фильм и эффекты и трюки на все 10 баллов!!!
 

Спасибо за фильм
 

Подскажите пожалуйста, я только приобщаюсь к 3Д, и только недавно у Вас зарегистрировался, и сразу не осилю всю информацию из мануала по 3Д - как чем проигрывать, что проигрывается и т.д. и прошу просто помочь с моим вопросом -
Тв Samsung 46F8000at (встроенный плеер разумееца не проигрывает этот фильм)
но планирую докупить для него плеер - Dune HD TV-303D
Ответте кто вкурсе - будет ли он кушать фильмы вроде этого, и в целом как дело с 3Д рипами обстоит - смогет осилить, (прошу не судить строго)
 

Очень красивый и красочный фильм.
 

Спасибо! Фильм супер.
 

Красиво. 3d на высоте.
 

Отлично!!!
 

Суперский фильм! Очень жалко всех зверей! Главный герой - человек Вселенной!
 

Страница 4 из 5

Пред.  1, 2, 3, 4, 5  След.