Торренты   
 
 

 

Хоббит: Нежданное путешествие / The Hobbit: An Unexpected Journey [2012 г., BDrip, 1080p, Anamorph SideBySide]

Рейтинг 3D:
385 голосов
8.0
Рейтинг фильма:
396 голосов
8.3
 
Вы должны быть авторизированы,
чтобы ставить оценки


© Закрыто правообладателем
Год выпуска: 2012
Страна: США, Новая Зеландия
Жанр: фэнтези, приключения
Продолжительность: 02:49:41
Перевод: Профессиональный (полное дублирование)
Субтитры: есть
Режиссер: Питер Джексон
В ролях: Мартин Фриман (Bilbo), Иэн МакКеллен (Gandalf), Ричард Армитидж (Thorin), Джеймс Несбитт (Bofur), Кен Стотт (Balin), Грэм МакТавиш (Dwalin), Уильям Кирчер (Bifur / Tom Troll), Стивен Хантер (Bombur), Дин О’Горман (Fili), Эйдан Тернер (Kili), Джон Коллен (Oin), Питер Хэмблтон (Gloin / William Troll)
Описание:
Фильм повествует о путешествии Бильбо Бэггинса, который пускается в грандиозный поход, целью которого является отвоевание утраченного королевства гномов Эребор у зловещего дракона Смога. Совершенно неожиданно с хоббитом налаживает контакт волшебник Гэндальф Серый. Так Бильбо находит себя, присоединяясь к компании тринадцати гномов, возглавляемых легендарным воином, Торином Дубощитом. Их путешествие проляжет через Дикий Край, через предательские земли, населенные гоблинами и орками, смертоносными варгами и гигантскими пауками, народом, меняющим шкуры, и волшебниками.
И хотя их цель находится на Востоке среди пустошей Одинокой Горы, сначала им придется выбраться из туннелей гоблинов, где Бильбо встретит существо, которое изменит его жизнь навсегда... Голлума.
Здесь, один на один с Голлумом, на берегу подземного озера, непритязательный Бильбо Бэггинс обнаружит не только скрытые в глубине души хитрость и отвагу, которые удивят даже его, но и завладеет «прелестным» колечком Голлума, которое обладает нежданными и полезными свойствами... Простое золотое кольцо, c которым связана судьба всего Средиземья, нитями, о которых Бильбо не мог даже вообразить.
Качество: BDrip by Alexman©
Формат 3D: Anamorph SideBySide
Порядок ракурсов: Левый ракурс первый
Видео: AVC / 23,976 fps / 1920х1080p / 8 947 Kbps
Аудио 1: Русский дублированный / AC3 / 48 KHz / 5.1 ch / 448 Kbps
Аудио 2: Украинский дублированный / AC3 / 48 KHz / 5.1 ch / 448 Kbps
Аудио 3: Английский оригинальный / AC3 / 48 KHz / 5.1 ch / 640 Kbps
Субтитры:
английские полные
русские полные
руские форсированные
украинские форсированные

MediaInfo

General
Unique ID : 171731298633300679967097285264143341232 (0x81323EBB1D4494B0AFBC0DDC4440D6B0)
Complete name : The Hobbit An Unexpected Journey [Хоббит Нежданное путешествие] (2012) DUB hSbS 1080p by Alexman©.mkv
Format : Matroska
Format version : Version 4 / Version 2
File size : 12.7 GiB
Duration : 2h 49mn
Overall bit rate : 10.7 Mbps
Movie name : The Hobbit: An Unexpected Journey [Хоббит: Нежданное путешествие]
Encoded date : UTC 2013-04-15 10:50:55
Writing application : mkvmerge v6.1.0 ('Old Devil') built on Mar 2 2013 14:32:37
Writing library : libebml v1.3.0 + libmatroska v1.4.0
Video
ID : 1
Format : AVC
Format/Info : Advanced Video Codec
Format profile : High@L4.1
Format settings, CABAC : Yes
Format settings, ReFrames : 4 frames
Codec ID : V_MPEG4/ISO/AVC
Duration : 2h 49mn
Bit rate : 8 947 Kbps
Width : 1 920 pixels
Height : 1 080 pixels
Display aspect ratio : 16:9
Frame rate mode : Constant
Frame rate : 23.976 fps
Color space : YUV
Chroma subsampling : 4:2:0
Bit depth : 8 bits
Scan type : Progressive
Bits/(Pixel*Frame) : 0.180
Stream size : 10.6 GiB (84%)
Title : The Hobbit: An Unexpected Journey [Хоббит: Нежданное путешествие]
Writing library : x264 core 129 r2245 bc13772
Encoding settings : cabac=1 / ref=4 / deblock=1:-3:-3 / analyse=0x3:0x113 / me=umh / subme=9 / psy=1 / psy_rd=1.00:0.15 / mixed_ref=1 / me_range=32 / chroma_me=1 / trellis=2 / 8x8dct=1 / cqm=0 / deadzone=21,11 / fast_pskip=1 / chroma_qp_offset=-3 / threads=6 / lookahead_threads=1 / sliced_threads=0 / nr=0 / decimate=1 / interlaced=0 / bluray_compat=0 / constrained_intra=0 / bframes=4 / b_pyramid=2 / b_adapt=2 / b_bias=0 / direct=3 / weightb=1 / open_gop=0 / weightp=2 / keyint=250 / keyint_min=23 / scenecut=40 / intra_refresh=0 / rc_lookahead=60 / rc=crf / mbtree=1 / crf=17.0 / qcomp=0.60 / qpmin=0 / qpmax=69 / qpstep=4 / vbv_maxrate=40000 / vbv_bufsize=40000 / crf_max=0.0 / nal_hrd=none / ip_ratio=1.40 / aq=1:0.70
Language : English
Default : Yes
Forced : Yes
Audio #1
ID : 2
Format : AC-3
Format/Info : Audio Coding 3
Mode extension : CM (complete main)
Format settings, Endianness : Big
Codec ID : A_AC3
Duration : 2h 49mn
Bit rate mode : Constant
Bit rate : 448 Kbps
Channel(s) : 6 channels
Channel positions : Front: L C R, Side: L R, LFE
Sampling rate : 48.0 KHz
Bit depth : 16 bits
Compression mode : Lossy
Stream size : 544 MiB (4%)
Title : Русский дублированный
Language : Russian
Default : Yes
Forced : Yes
Audio #2
ID : 3
Format : AC-3
Format/Info : Audio Coding 3
Mode extension : CM (complete main)
Format settings, Endianness : Big
Codec ID : A_AC3
Duration : 2h 49mn
Bit rate mode : Constant
Bit rate : 448 Kbps
Channel(s) : 6 channels
Channel positions : Front: L C R, Side: L R, LFE
Sampling rate : 48.0 KHz
Bit depth : 16 bits
Compression mode : Lossy
Stream size : 544 MiB (4%)
Title : Украинский дублированный
Language : Ukrainian
Default : No
Forced : No
Audio #3
ID : 4
Format : AC-3
Format/Info : Audio Coding 3
Mode extension : CM (complete main)
Format settings, Endianness : Big
Codec ID : A_AC3
Duration : 2h 49mn
Bit rate mode : Constant
Bit rate : 640 Kbps
Channel(s) : 6 channels
Channel positions : Front: L C R, Side: L R, LFE
Sampling rate : 48.0 KHz
Bit depth : 16 bits
Compression mode : Lossy
Stream size : 777 MiB (6%)
Title : English original
Language : English
Default : No
Forced : No
Text #1
ID : 5
Format : UTF-8
Codec ID : S_TEXT/UTF8
Codec ID/Info : UTF-8 Plain Text
Title : English full
Default : No
Forced : No
Text #2
ID : 6
Format : UTF-8
Codec ID : S_TEXT/UTF8
Codec ID/Info : UTF-8 Plain Text
Title : Русские полные
Language : Russian
Default : No
Forced : No
Text #3
ID : 7
Format : UTF-8
Codec ID : S_TEXT/UTF8
Codec ID/Info : UTF-8 Plain Text
Title : Русские форсированные
Language : Russian
Default : Yes
Forced : Yes
Text #4
ID : 8
Format : UTF-8
Codec ID : S_TEXT/UTF8
Codec ID/Info : UTF-8 Plain Text
Title : Украинские форсированные
Language : Ukrainian
Default : No
Forced : No

Анимированные скриншоты для оценки 3Д-эффекта




Релиз заменён 15.04.2013г. Желающие могут перекачать торрент.
Причины замены:
1. Русский дубляж заменен на лицензионный
2. Добавлен украинский дубляж
3. Добавлен комплект русских и украинских субтитров.
Проверено на ТВ Samsung 40C7000 и Samsung 46D7000
Остальные раздачи этого фильма (8)
Благодарности релизеру (103)

Торрент:

Статус:

Размер:

Зарегистрирован   [ 2013-04-15 16:12 ]

© закрыто правообладателем

12.68 GB