Торренты   
 
 

 

Жизнь Пи / Life of Pi (Энг Ли) [2012 г., BDRip, Full OverUnder]

Рейтинг 3D:
273 голосов
8.3
Рейтинг фильма:
269 голосов
8.3
 
Вы должны быть авторизированы,
чтобы ставить оценки


Жизнь Пи / Life of Pi
Год выпуска: 2012
Страна: США, Тайвань
Жанр: Драма, Приключения
Продолжительность: 02:07:00
Перевод: Профессиональный (полное дублирование) "Чистый звук"
Режиссер: Энг Ли
В ролях: Сурадж Шарма, Ирфан Кхан, Рейф Сполл, Табу, Адиль Хуссэйн, Жерар Депардье, Аюш Тандон, Гаутам Белур, Аян Кхан, Мохд Аббас Халили и др.
Описание: Еще одна история "Маугли", которая происходит не в джунглях, а посреди Тихого океана, где по бескрайней водной глади дрейфует лодка со спасшимися после кораблекрушения. Семья решает перебраться жить в Канаду, но корабль терпит крушение. Индийский подросток Пи оказывается на шлюпке посреди океана в компании неожиданного попутчика — грозного бенгальского тигра. Фильм поставлен по одноименной книге Янна Мартелла, за которую автор получил Букеровскую премию.
Релиз группы:
Формат 3D: OverUnder BDRip, Full
Видео: AVC, High@L4.0, 1920x2080, 23.976 fps, 20,5 Мбит/сек
Аудио: Rus,AC-3, 6 каналов, 448 Кбит/сек, 48,0 КГц
Аудио: Eng, DTS, 6 каналов, 1510 Кбит/сек, 48,0 КГц

Скриншоты




MediaInfo

Общее
Уникальный идентификатор : 251923943341129910010051132506911076257 (0xBD86C95FDADA138C9755299F4E90EFA1)
Полное имя : E:\STEREO\Life of Pi_1080p_Rip by Dag13.mkv
Формат : Matroska
Версия формата : Version 2
Размер файла : 20,3 Гбайт
Продолжительность : 2 ч. 6 м.
Общий поток : 22,9 Мбит/сек
Дата кодирования : UTC 2013-03-05 15:23:48
Программа кодирования : mkvmerge v3.4.0 ('Rapunzel') сборка от May 15 2010 09:38:20
Библиотека кодирования : libebml v0.8.0 + libmatroska v0.9.0
Видео
Идентификатор : 1
Формат : AVC
Формат/Информация : Advanced Video Codec
Профиль формата : High@L5.0
Параметр CABAC формата : Да
Параметр ReFrames формата : 4 кадра
Идентификатор кодека : V_MPEG4/ISO/AVC
Продолжительность : 2 ч. 6 м.
Битрейт : 20,5 Мбит/сек
Ширина : 1920 пикселей
Высота : 2080 пикселей
Соотношение сторон : 0,923
Режим частоты кадров : Постоянный
Частота кадров : 23,976 кадра/сек
Цветовое пространство : YUV
Субдискретизация насыщенности : 4:2:0
Битовая глубина : 8 бит
Тип развёртки : Прогрессивная
Бит/(Пиксели*Кадры) : 0.214
Размер потока : 18,2 Гбайт (89%)
Заголовок : Rip by Dag13
Библиотека кодирования : x264 core 120 r2145 748fe16
Настройки программы : cabac=1 / ref=4 / deblock=1:-3:-3 / analyse=0x3:0x113 / me=umh / subme=9 / psy=1 / psy_rd=1.00:0.00 / mixed_ref=1 / me_range=16 / chroma_me=1 / trellis=2 / 8x8dct=1 / cqm=0 / deadzone=21,11 / fast_pskip=1 / chroma_qp_offset=-2 / threads=9 / sliced_threads=0 / nr=0 / decimate=1 / interlaced=0 / bluray_compat=0 / constrained_intra=0 / bframes=6 / b_pyramid=2 / b_adapt=2 / b_bias=0 / direct=3 / weightb=1 / open_gop=0 / weightp=2 / keyint=250 / keyint_min=23 / scenecut=40 / intra_refresh=0 / rc_lookahead=60 / rc=crf / mbtree=1 / crf=18.0 / qcomp=0.60 / qpmin=1 / qpmax=69 / qpstep=4 / ip_ratio=1.40 / aq=1:1.00
Язык : English
Default : Нет
Forced : Нет
Аудио #1
Идентификатор : 2
Формат : AC-3
Формат/Информация : Audio Coding 3
Расширение режима : CM (complete main)
Параметр Endianness формата : Big
Идентификатор кодека : A_AC3
Продолжительность : 2 ч. 6 м.
Вид битрейта : Постоянный
Битрейт : 448 Кбит/сек
Каналы : 6 каналов
Расположение каналов : Front: L C R, Side: L R, LFE
Частота : 48,0 КГц
Битовая глубина : 16 бит
Метод сжатия : С потерями
Размер потока : 407 Мбайт (2%)
Язык : Russian
Default : Да
Forced : Нет
Аудио #2
Идентификатор : 3
Формат : DTS
Формат/Информация : Digital Theater Systems
Профиль формата : ES
Идентификатор кодека : A_DTS
Продолжительность : 2 ч. 6 м.
Вид битрейта : Постоянный
Битрейт : 1510 Кбит/сек
Каналы : 6 каналов
Расположение каналов : Front: L C R, Side: L R, LFE
Частота : 48,0 КГц
Битовая глубина : 24 бит
Метод сжатия : С потерями
Размер потока : 1,34 Гбайт (7%)
Язык : English
Default : Нет
Forced : Нет
На встроенных ТВ-плейерах показывать НЕ будет!!!
Остальные раздачи этого фильма (3)
Благодарности релизеру (28)

Торрент:

Статус:

Размер:

Зарегистрирован   [ 2013-03-05 19:52 ]

проверено

20.33 GB

 
 Мнение о фильме (97)

1, 2, 3, 4, 5  След.






СУПЕР 3Д!!!! 3Д в фильме просто БОМБА!!! Очень красивый фильм ))
 

Очень здорово!!! Просто СУПЕР и Фильм и 3D! Огромное СПАСИБО от всей семьи!!
 

Спасибо!!! Фильм классный! Lg lw4500, на весь экран, без черных полос)
 
Владислав Г. Профиль 07-Мар-2013 00:37

офигенный фильм! смотрите не пожалеете!
 

всем саветую посмотреть класный фильм и очень красивая природа я длин афигеть как шуганулся когда тигр на гиену кинулся у меня сердце в пятки ушло))))
 

благодарю. нормальный фильм.
 

Это просто земной Автатар!
 

Спасибо!Фильм стоит смотреть только из за 3D!
 

Стоит не только из-за 3D смотреть. У фильма очень интересная концовка.
 

Классный фильм, спасибо
 
девочка на облаке Профиль 10-Мар-2013 14:28

Очень понравился фильм!!!
 

фильм зачетный 3 д гуд!!!!
 

Спасибо, отличный фильм! Отличные спецэффекты! У меня в одном месте отпал русский перевод буквально на 10 сек. а так все здорово.
 

У меня в одном месте отпал русский перевод буквально на 10 сек
в фильме индийская и французская речь специально не переведены, для того чтобы атмосфера лучше чувствовалась, но на эти места есть форсированные субтитры, внешние включены по умолчанию.
 

Спасибо большое. Фильм того стоит, что по содержанию что по качеству 3д все 100 очков!!!
 

Смотрел в кино. Фильм - супер!
В IMAX'е не понравилось качество - картинка размытая, не четкая. Еще раз убеждаюсь, что на телевизоре качество во много раз лучше, чем в кинотеатре. У кинотеатра один плюс - большой экран.
 

Спасибо. Хороший объем 3D, красивый фильм.
 

Спасибо :)
Отличный фильм!
 

Фильм отличный. 3Д местами впечатляет, присутствуют вылеты. В сцене с летучей рыбой разрешение почему то изменяется (появляются полосы как у широкоэкранки затем после этой сцены пропадают и снова полный экран как и было) это у всех так? Качество отличное. Спасибо автору.
 

В сцене с летучей рыбой разрешение почему то изменяется (появляются полосы...
У всех так. Там такая задумка, рыбины вылезают (вылетают) за пределы черных полос, для создания эффекта вылета за рамку экрана без обрезания, т.е. на черных полосах вырезанное по контуру полезное изображение (рыба). Такое было один раз в "G-forse" про хомяков "Миссия Дарвина".
Фильм не плохой, яркий. 3Д не стабильное от 4 до 9 баллов, то ноу-хао как с титрами просачивающимися между лапами животных или плавающие в водной ряби, то плоские лица на крупных планах. Куда же без пропаганды религии. В конце может возникнуть вопрос, какая из двух историй была правдой? :)
 

Страница 1 из 5

1, 2, 3, 4, 5  След.