Торренты   
 
 

 

Xoббит: Heжданнoе путeшecтвиe / The Ноbbit: An Unеxресted Jоurnеу (Питep Джeкcoн / Реtеr Jасksоn) [2012 г., Anamorph OverUnder]

Рейтинг 3D:
385 голосов
8.0
Рейтинг фильма:
396 голосов
8.3
 
Вы должны быть авторизированы,
чтобы ставить оценки


-Xoббит: Heжданнoе путeшecтвиe /The Ноbbit: An Unеxресted Jоurnеу«Из самых маленьких начал прибывают самые большие легенды.»
Год выпуска: 2012
Страна: США, Новая Зеландия (Warner Bros. Pictures, New Line Cinema, Metro-Goldwyn-Mayer, WingNut Films)
Жанр: Фэнтези, Приключения
Продолжительность: 02:49:41
Перевод: Профессиональный дублированный ("Чистый звук")
Режиссер: Питep Джeкcoн / Реtеr Jасksоn
Субтитры:Форсированные,полные.
В ролях: Мартин Фриман (Bilbo), Иэн МакКеллен (Gandalf), Ричард Армитидж (Thorin), Джеймс Несбитт (Bofur), Кен Стотт (Balin), Грэм МакТавиш (Dwalin), Уильям Кирчер (Bifur / Tom Troll), Стивен Хантер (Bombur), Дин О’Горман (Fili), Эйдан Тернер (Kili), Джон Коллен (Oin), Питер Хэмблтон (Gloin / William Troll)
Описание: Фильм повествует о путешествии Бильбо Бэггинса, который пускается в грандиозный поход, целью которого является отвоевание утраченного королевства гномов Эребор у зловещего дракона Смога. Совершенно неожиданно с хоббитом налаживает контакт волшебник Гэндальф Серый. Так Бильбо находит себя, присоединяясь к компании тринадцати гномов, возглавляемых легендарным воином, Торином Дубощитом. Их путешествие проляжет через Дикий Край, через предательские земли, населенные гоблинами и орками, смертоносными варгами и гигантскими пауками, народом, меняющим шкуры, и волшебниками.
И хотя их цель находится на Востоке среди пустошей Одинокой Горы, сначала им придется выбраться из туннелей гоблинов, где Бильбо встретит существо, которое изменит его жизнь навсегда… Голлума.
Здесь, один на один с Голлумом, на берегу подземного озера, непритязательный Бильбо Бэггинс обнаружит не только скрытые в глубине души хитрость и отвагу, которые удивят даже его, но и завладеет «прелестным» колечком Голлума, которое обладает нежданными и полезными свойствами… Простое золотое кольцо, c которым связана судьба всего Средиземья, нитями, о которых Бильбо не мог даже вообразить.--Качество: BDrip
Контейнер: MKV
Формат 3D: Anamorph OverUnder / Вертикальная анаморфная стереопара
Порядок ракурсов: левый ракурс первый
Видео кодек: x264
Аудио кодек: AC3-Видео: AVC / 23,976 fps / 1920х1080p / 10,1 Mbps
Аудио 1: - Русский / AC3 / 48 KHz / 5.1 ch / 448 Kbps Дубляж - (чистый звук)
Аудио 2: - Английский
/ AC3 / 48 KHz / 5.1 ch / 640 Kbps
Субтитры вшитые softsub SRT:
#1 - Русские форсированные ( речь эльфов и троллей) включены по умолчанию
#2 - Русские полные--

MediaInfo

Общее
Уникальный идентификатор : 250447706121988753202878806322918538538 (0xBC6A7942973750ED915560753D753D2A)
Полное имя : E:\3Д фильмы\The Ноbbit An Unеxресted Jоurnеу (3D )2012.BDRip.1080p.Half OU.x264.AC3 Rus.3D-RuGroup.(m@rik05).mkv
Формат : Matroska
Версия формата : Version 2
Размер файла : 13,5 Гбайт
Продолжительность : 2 ч. 49 м.
Общий поток : 11,4 Мбит/сек
Название фильма : The Ноbbit: An Unеxресted Jоurnеу 3D(2012) 3D-RuGroup (m@rik05)
Дата кодирования : UTC 2013-03-06 10:25:39
Программа кодирования : mkvmerge v3.4.0 ('Rapunzel') сборка от May 15 2010 09:38:20
Библиотека кодирования : libebml v0.8.0 + libmatroska v0.9.0
Видео
Идентификатор : 1
Формат : AVC
Формат/Информация : Advanced Video Codec
Профиль формата : High@L4.1
Параметр CABAC формата : Да
Параметр ReFrames формата : 4 кадра
Идентификатор кодека : V_MPEG4/ISO/AVC
Продолжительность : 2 ч. 49 м.
Битрейт : 10,1 Мбит/сек
Ширина : 1920 пикселей
Высота : 1080 пикселей
Соотношение сторон : 16:9
Режим частоты кадров : Постоянный
Частота кадров : 23,976 кадра/сек
Цветовое пространство : YUV
Субдискретизация насыщенности : 4:2:0
Битовая глубина : 8 бит
Тип развёртки : Прогрессивная
Бит/(Пиксели*Кадры) : 0.202
Размер потока : 11,9 Гбайт (88%)
Заголовок : BDrip (by m@rik05)
Библиотека кодирования : x264 core 116 r2074 2641b9e
Настройки программы : cabac=1 / ref=4 / deblock=1:-3:-3 / analyse=0x3:0x133 / me=umh / subme=9 / psy=1 / psy_rd=1.00:0.05 / mixed_ref=1 / me_range=16 / chroma_me=1 / trellis=2 / 8x8dct=1 / cqm=0 / deadzone=21,11 / fast_pskip=1 / chroma_qp_offset=-3 / threads=12 / sliced_threads=0 / nr=0 / decimate=1 / interlaced=0 / bluray_compat=0 / constrained_intra=0 / bframes=6 / b_pyramid=2 / b_adapt=2 / b_bias=0 / direct=3 / weightb=1 / open_gop=0 / weightp=2 / keyint=250 / keyint_min=23 / scenecut=40 / intra_refresh=0 / rc_lookahead=60 / rc=crf / mbtree=1 / crf=17.0 / qcomp=0.70 / qpmin=10 / qpmax=51 / qpstep=4 / vbv_maxrate=40000 / vbv_bufsize=30000 / crf_max=0.0 / nal_hrd=none / frame-packing=4 / ip_ratio=1.40 / aq=1:0.70
Язык : English
Default : Нет
Forced : Нет
Аудио #1
Идентификатор : 2
Формат : AC-3
Формат/Информация : Audio Coding 3
Расширение режима : CM (complete main)
Параметр Endianness формата : Big
Идентификатор кодека : A_AC3
Продолжительность : 2 ч. 49 м.
Вид битрейта : Постоянный
Битрейт : 448 Кбит/сек
Каналы : 6 каналов
Расположение каналов : Front: L C R, Side: L R, LFE
Частота : 48,0 КГц
Битовая глубина : 16 бит
Метод сжатия : С потерями
Размер потока : 544 Мбайт (4%)
Заголовок : AC3 / 5.1 ch / 448 kbps / дубляж (чистый звук)
Язык : Russian
Default : Да
Forced : Нет
Аудио #2
Идентификатор : 3
Формат : AC-3
Формат/Информация : Audio Coding 3
Расширение режима : CM (complete main)
Параметр Endianness формата : Big
Идентификатор кодека : A_AC3
Продолжительность : 2 ч. 49 м.
Вид битрейта : Постоянный
Битрейт : 640 Кбит/сек
Каналы : 6 каналов
Расположение каналов : Front: L C R, Side: L R, LFE
Частота : 48,0 КГц
Битовая глубина : 16 бит
Метод сжатия : С потерями
Размер потока : 777 Мбайт (6%)
Заголовок : AC3 / 5/1 ch / 640 kbps / original
Язык : English
Default : Нет
Forced : Нет
Текст #1
Идентификатор : 4
Формат : UTF-8
Идентификатор кодека : S_TEXT/UTF8
Идентификатор кодека/Информация : UTF-8 Plain Text
Заголовок : форсированные( речь эльфов и троллей)
Язык : Russian
Default : Да
Forced : Нет
Текст #2
Идентификатор : 5
Формат : UTF-8
Идентификатор кодека : S_TEXT/UTF8
Идентификатор кодека/Информация : UTF-8 Plain Text
Заголовок : Полные
Язык : Russian
Default : Нет
Forced : Нет
Меню
00:00:00.000 : en:00:00:00.000
00:06:49.117 : en:00:06:49.117
00:09:26.357 : en:00:09:26.357
00:15:32.473 : en:00:15:32.473
00:20:24.098 : en:00:20:24.098
00:23:17.605 : en:00:23:17.605
00:36:47.455 : en:00:36:47.455
00:38:45.532 : en:00:38:45.532
00:39:57.228 : en:00:39:57.228
00:44:18.948 : en:00:44:18.948
00:46:28.869 : en:00:46:28.869
00:49:18.622 : en:00:49:18.622
01:00:18.073 : en:01:00:18.073
01:05:47.068 : en:01:05:47.068

Скриншоты

Остальные раздачи этого фильма (8)
Благодарности релизеру (108)

Торрент:

Статус:

Размер:

Зарегистрирован   [ 2013-03-07 01:47 ]

проверено

13.48 GB

 
 Мнение о фильме (112)

Пред.  1, 2, 3, 4, 5, 6  След.






Фильм хороший. Спасибо.
 

BD3D 54 Гб удалил,оставил этот!!!
 

Фильм очень интересный, всем, так сказать, поклонникам Властелина Колец посвящается) 3D так же на высоте! Спасибо огромное!)
 

Смотрел с помощью проектора ViewSonic PJD7820HD. Впечатление потрясающее. 3D великолепное. Эффект усиливается тем, что изображение полноэкранное. Спасибо! так держать!
 

О фильме , из нета , кратко и емко : ,,Фильм Хоббит идет 2 часа 50 минут, из которых они 2 часа 40 минут, сцуко, прутся пешком, попути отхватываю пиздюлей от всех кому не лень, и вот в конце когда уже желающие дать им пиздюлей заканчиваются - Гэндальф наконец-то кастует Орлов. Мы с братом в кинотеатре реально охренели от такого поворота сюжета. ,,
 

отличный фильм посмотрели с удовольствием.
 

Посмотрел месяц назад, сейчас пытаюсь вспомнить героев фильма и помню только Бильбо, Гендальфа, злого и хмурого гнома да и агента Смита из матрицы. Персонажи раскрыты чуть более чем никак.
 

А по - моему нормальдос!!! правда вылетов маловато, зато сюжет выше всех похвал))))
 
Алексей "51" Профиль 16-Июн-2013 00:23

не качает нифига и сиды есть и пиры и скорость спидтестом проверял и нифига 1кб в секунду(((((((
 

хороший фильмец
 

смотреть можно, 3D присутствует
 

всё хорошо и 3 D и сюжет фильма и спец эфекты давно такого не было
 

Фильм Великолепен и качество и звук на 3D LG лучше чем в кинотеатре
 

Хорошая, красивая сказка.
 

Очень хороший фильм всей семьей вечерком посмотреть.
 

Есть и аквариум, есть и вылеты.Сам сюжет неплох,но смущает подмена актеров на общем плане.
 

Хорошо и долго-а может и хорошо что долго.Большое спасибо.
 

Огромное спасибо за отличное качество.Фильм супер.
 

Фильм не мог быть плохим. Он как и властелин колец еще до выхода стал классикой :)
 

На компе показывает только на Медиа Плеер Классик и VLC, при этом изображение растянуто по вертикали. "Splash PRO EX" картинку не показывает, только звук. DViX вообще виснет. "ArcSoft Total Media Theatre 5" выдаёт только звук и виснет.
Имеет место поддёргивание картинки на тех плеерах, что способны прожевать данное MKV. Но они и не предназначены для этого, между нами говоря.
Качество самой картинки - так себе.
Телек Philips 55FPL7007T.
 

Страница 4 из 6

Пред.  1, 2, 3, 4, 5, 6  След.