Торренты   
 
 

 

Хоббит: Нежданное путешествие / The Hobbit: An Unexpected Journey (Питер Джексон) [2012 г., BDRip, Full OverUnder]

Рейтинг 3D:
385 голосов
8.0
Рейтинг фильма:
396 голосов
8.3
 
Вы должны быть авторизированы,
чтобы ставить оценки


Хоббит: Нежданное путешествие / The Hobbit: An Unexpected Journey
Год выпуска: 2012
Страна: США, Новая Зеландия
Жанр: фэнтези, приключения
Продолжительность: 02:49:41
Перевод: Профессиональный (полное дублирование)
Режиссер: Питер Джексон
В ролях: Мартин Фриман (Bilbo), Иэн МакКеллен (Gandalf), Ричард Армитидж (Thorin), Джеймс Несбитт (Bofur), Кен Стотт (Balin), Грэм МакТавиш (Dwalin), Уильям Кирчер (Bifur / Tom Troll), Стивен Хантер (Bombur), Дин О’Горман (Fili), Эйдан Тернер (Kili), Джон Коллен (Oin), Питер Хэмблтон (Gloin / William Troll)
Описание: Фильм повествует о путешествии Бильбо Бэггинса, который пускается в грандиозный поход, целью которого является отвоевание утраченного королевства гномов Эребор у зловещего дракона Смога. Совершенно неожиданно с хоббитом налаживает контакт волшебник Гэндальф Серый. Так Бильбо находит себя, присоединяясь к компании тринадцати гномов, возглавляемых легендарным воином, Торином Дубощитом. Их путешествие проляжет через Дикий Край, через предательские земли, населенные гоблинами и орками, смертоносными варгами и гигантскими пауками, народом, меняющим шкуры, и волшебниками.
И хотя их цель находится на Востоке среди пустошей Одинокой Горы, сначала им придется выбраться из туннелей гоблинов, где Бильбо встретит существо, которое изменит его жизнь навсегда... Голлума.
Здесь, один на один с Голлумом, на берегу подземного озера, непритязательный Бильбо Бэггинс обнаружит не только скрытые в глубине души хитрость и отвагу, которые удивят даже его, но и завладеет «прелестным» колечком Голлума, которое обладает нежданными и полезными свойствами... Простое золотое кольцо, c которым связана судьба всего Средиземья, нитями, о которых Бильбо не мог даже вообразить.
Релиз группы:
Формат 3D: OverUnder BDRip, Full
Видео: AVC, High@L4.0, 1920x1600, 23.976 fps, 14,4 Мбит/сек
Аудио: Rus,AC-3, 6 каналов, 448 Кбит/сек, 48,0 КГц
Аудио: Eng, DTS, 6 каналов, 1510 Кбит/сек, 48,0 КГц
Субтитры на речь орков и эльфов отдельным файлом на Яндекс диске

Скриншоты




MediaInfo

Общее
Уникальный идентификатор : 189582963138870967817899144895047422481 (0x8EA059BEA8CD5A7B9AE6D16AC16C5211)
Полное имя : E:\STEREO\TheHobbit_1080p_Rip by Dag13.mkv
Формат : Matroska
Версия формата : Version 2
Размер файла : 19,8 Гбайт
Продолжительность : 2 ч. 49 м.
Общий поток : 16,7 Мбит/сек
Название фильма : IRONCLUB
Дата кодирования : UTC 2013-03-07 16:21:58
Программа кодирования : mkvmerge v3.4.0 ('Rapunzel') сборка от May 15 2010 09:38:20
Библиотека кодирования : libebml v0.8.0 + libmatroska v0.9.0
Видео
Идентификатор : 1
Формат : AVC
Формат/Информация : Advanced Video Codec
Профиль формата : High@L5.0
Параметр CABAC формата : Да
Параметр ReFrames формата : 4 кадра
Идентификатор кодека : V_MPEG4/ISO/AVC
Продолжительность : 2 ч. 49 м.
Битрейт : 14,4 Мбит/сек
Ширина : 1920 пикселей
Высота : 1600 пикселей
Соотношение сторон : 1,200
Режим частоты кадров : Постоянный
Частота кадров : 23,976 кадра/сек
Цветовое пространство : YUV
Субдискретизация насыщенности : 4:2:0
Битовая глубина : 8 бит
Тип развёртки : Прогрессивная
Бит/(Пиксели*Кадры) : 0.195
Размер потока : 17,1 Гбайт (86%)
Заголовок : Rip by Dag13
Библиотека кодирования : x264 core 120 r2145 748fe16
Настройки программы : cabac=1 / ref=4 / deblock=1:-3:-3 / analyse=0x3:0x113 / me=umh / subme=9 / psy=1 / psy_rd=1.00:0.00 / mixed_ref=1 / me_range=16 / chroma_me=1 / trellis=2 / 8x8dct=1 / cqm=0 / deadzone=21,11 / fast_pskip=1 / chroma_qp_offset=-2 / threads=9 / sliced_threads=0 / nr=0 / decimate=1 / interlaced=0 / bluray_compat=0 / constrained_intra=0 / bframes=6 / b_pyramid=2 / b_adapt=2 / b_bias=0 / direct=3 / weightb=1 / open_gop=0 / weightp=2 / keyint=250 / keyint_min=23 / scenecut=40 / intra_refresh=0 / rc_lookahead=60 / rc=crf / mbtree=1 / crf=18.0 / qcomp=0.60 / qpmin=1 / qpmax=69 / qpstep=4 / ip_ratio=1.40 / aq=1:1.00
Язык : English
Default : Нет
Forced : Нет
Аудио #1
Идентификатор : 2
Формат : AC-3
Формат/Информация : Audio Coding 3
Расширение режима : CM (complete main)
Параметр Endianness формата : Big
Идентификатор кодека : A_AC3
Продолжительность : 2 ч. 49 м.
Вид битрейта : Постоянный
Битрейт : 448 Кбит/сек
Каналы : 6 каналов
Расположение каналов : Front: L C R, Side: L R, LFE
Частота : 48,0 КГц
Битовая глубина : 16 бит
Метод сжатия : С потерями
Размер потока : 544 Мбайт (3%)
Язык : Russian
Default : Да
Forced : Нет
Аудио #2
Идентификатор : 3
Формат : DTS
Формат/Информация : Digital Theater Systems
Идентификатор кодека : A_DTS
Продолжительность : 2 ч. 49 м.
Вид битрейта : Постоянный
Битрейт : 1510 Кбит/сек
Каналы : 6 каналов
Расположение каналов : Front: L C R, Side: L R, LFE
Частота : 48,0 КГц
Битовая глубина : 24 бит
Метод сжатия : С потерями
Задержка видео : 11 мс.
Размер потока : 1,79 Гбайт (9%)
Заголовок : DTS 5.1 @ 1536 kbps
Язык : English
Default : Нет
Forced : Нет
На встроенных ТВ-плейерах показывать НЕ будет!!!
Остальные раздачи этого фильма (8)
Благодарности релизеру (41)

Торрент:

Статус:

Размер:

Зарегистрирован   [ 2013-03-07 22:11 ]

проверено

19.78 GB

 
 Мнение о фильме (112)

1, 2, 3, 4, 5, 6  След.






А 3д, судя по скринам, очень качественное
 

и где обещанные издателем 48 fps?
 

Fetish, наверное, в кинотеатре. Ибо далеко не все телевизоры, а вернее сказать очень мало какие, готовы показывать эти самые 48 fps...
 

Вообще то 48 кадров в секунду было даже не во всех кинотеатрах, а только в малом количестве, где имеется сервер для показов 48 кадров в секунду.
 

3Д, конечно, не как в Жизнь Пи, сначала жутко испугала глубина, а потом ничё так, всмотрелся. Благо на это есть 3 часа )) Спасибо за релиз!!!
 

Только после просмотра обратил внимание на продолжительность фильма )), и удивился - "Властелина Колец" смотрел с перерывами каждую серию, а здесь не заметил, как пролетело время. Буду ждать теперь полный BD3D, чтобы пересмотреть со своей девушкой.
Раздающему - огромное спасибо, давно ждал этот фильм!
 

точнее сказать - в единицах кинотеатров (я про совок) есть проекторы - самые суперсовременные, адаптируемые(!) к возможности 48fps воспросизводить.. не думаю, что хоть где-то в совке показывали 48-ю версию на садаптированном проекторе, и новости всех каналов об этом молчат.. ведь за Новую Зеландию не раз говорили...
так что даже ответ "в кинотеатрах" - пока фатастичен((((
Спасибо за релиз! тоже очень давно ждал и очень люблю Питера Джескона - т.к. слежу за его творчеством с шедевра "Bad Taste" - и всем рекомендую.. В картинке и в глубине 3д не сомневаюсь - хватило бы битрейта
 

true_cartman, а по-моему жутко занудный фильм. с кучей диалогов ни о чем и даже песнями.....))
смотрел в кинотеатре с этими самыми 48 кадрами, разницы не заметил, разве что сцены экшна смотрятся как то более динамично чтоли)
 

Фильм зачотный.Смотрел правда под температурой и не в 3D. =) Больше понравился чем Властелин колец.
 

Почему такой низкий рейтинг 3Д. Оно тут очень хорошее.
 

Почему такой низкий рейтинг 3Д. Оно тут очень хорошее.
ну на вкус и цвет все фломастеры разные :) например, кто-то ждёт "вылетов" и не увидев их на своём 32-дюймовом телевизоре или вообще 24-дюймовом мониторе ставит 2 :)
 

я поставил 2 хотя смотрел на 46))))
 

Отличный фильм и приличное 3D
 

Смотрел с блюрей на 4 м экране через проектор, 3Д тут ооочень приличное. Миксер в глаз кто не видит. Да и вылеты тоже есть и выпирает все с экрана.
 

действительно,согласен по поводу мнений и оценок!! смотрят чуть ли не на мониторах компьютерных типа 24 или 32 дюйма а потом говорят что 3д плохое. этот формат изначально и по умолчанию подразумевает только большие экраны для зрелищности и эффекта присутствия!! у меня хоть и не проектор а рангом ниже,всего лишь Тв,но на 51 дюймовом экране смотрится очень достойно! Спасибо за данный релиз и этому сайту что вы Есть!!!
 

Я смотрел в кинотеатре. 3д меня не впечатлило. После просмотра сложилось впечатление, что как бы да, нормальное было 3д, очки снимать не хотелось, но не больше. Специальных сцен, которые бы хорошо смотрелись в 3д, я не помню. Снято по старинке, а 3д как приложение.
Уверен, что посмотрев фильм в 2д нельзя будет сказать, что он потерял какую-то значительную свою ценность. А ведь хорошее 3д - это значительная часть фильма, без которой он теряет что-то заметное. Здесь это лишь дополнение.
Сам фильм хороший. Много приключений и веселого экшена. Приятные персонажи. И все остальное, как полагается.
 

смотрел в imax в воронеже, с 12 до 3 ночи. Было обалденно. Теперь и дома посмотрю .Спасибо.
 

Посмотрел фильм и понял что это шедевр!!!
фильм супер 10 из 10. супер. Сьемки шикарные красочные сочные. 3Д на моем 64 дюймовом телеке супер. . жду следующую часть
P.S. читал книгу много раз.
 

Уж простите конечно, но скучно смотреть такие фильмы только в двух случаях, вы не понимаете полностью что происходит и вы не любите читать книги(не только фэнтези , а вообще в целом).
з.ы. Врубил на ноуте через Stereoscopic Player, я видать отстал от жизни, он проигрыватель черные полосы просто автоматом убрал и все, нету слов я аж обалдел, разница в 3D с черными полосами и без это как небо и земля.
 

Ну что, кто хочет в 48 и выше кадров - покупайте мощные компы и используйте SVP...
 

Страница 1 из 6

1, 2, 3, 4, 5, 6  След.