Торренты   
 
 

 

Cirque du Soleil: Сказочный мир / Cirque du Soleil: Worlds Away [2012 г., BDrip, 1080p, Anamorph SideBySide]

Рейтинг 3D:
50 голосов
7.6
Рейтинг фильма:
49 голосов
7.1
 
Вы должны быть авторизированы,
чтобы ставить оценки


Cirque du Soleil: Сказочный мир / Cirque du Soleil: Worlds Away
Год выпуска: 2012
Страна: США (Paramaunt Pictures, Cirque du Soleil Burlesco, Reel FX Creative Studios, Strange Weather Films)
Жанр: Фэнтези, Мюзикл, Цирк
Продолжительность: 01:31:12
Перевод: Отсутствует (необязателен)
Режиссер: Эндрю Адамсон
В ролях: Эрика Линц, Игорь Зарипов, Лутс Халбхюбнер, Джон Кларк, Даллас Барнетт, Таня Дрюери, Сара Хуболт, Аскья Мэйбери, Дэмиен Гордон, Зэк Бриклэнд, Ирен Год и др.
О фильме:
Удивительная история двух влюбленных, которых разлучила судьба, по мотивам лучших шоу Cirque du Soleil. Им придется пройти через многое, чтобы снова быть вместе…
Качество: BDrip by Alexman©
Формат 3D: Anamorph SideBySide / Горизонтальная анаморфная стереопара
Порядок ракурсов: левый ракурс первый
Видео: MPEG4 AVC, 9 492 Kbps, 1920x1080, 23.976 кадр/с
Аудио №1: Английский / AC3 / 48 KHz / 5.1 ch / 640 Kbps

MediaInfo

General
Unique ID : 170331866075555650168920845492857201453 (0x8024B960F72E65949F83A0646DA5E32D)
Complete name : Cirque Du Soleil Worlds Away (3D) 2012 hSbS (by Alexman©).mkv
Format : Matroska
Format version : Version 4 / Version 2
File size : 6.59 GiB
Duration : 1h 31mn
Overall bit rate : 10.3 Mbps
Encoded date : UTC 2013-03-09 19:21:06
Writing application : mkvmerge v6.1.0 ('Old Devil') built on Mar 2 2013 14:32:37
Writing library : libebml v1.3.0 + libmatroska v1.4.0
Video
ID : 1
Format : AVC
Format/Info : Advanced Video Codec
Format profile : High@L4.1
Format settings, CABAC : Yes
Format settings, ReFrames : 4 frames
Codec ID : V_MPEG4/ISO/AVC
Duration : 1h 31mn
Bit rate : 9 492 Kbps
Width : 1 920 pixels
Height : 1 080 pixels
Display aspect ratio : 16:9
Frame rate mode : Constant
Frame rate : 23.976 fps
Color space : YUV
Chroma subsampling : 4:2:0
Bit depth : 8 bits
Scan type : Progressive
Bits/(Pixel*Frame) : 0.191
Stream size : 6.05 GiB (92%)
Title : Cirque Du Soleil
Writing library : x264 core 129 r2245 bc13772
Encoding settings : cabac=1 / ref=4 / deblock=1:-3:-3 / analyse=0x3:0x113 / me=umh / subme=9 / psy=1 / psy_rd=1.00:0.15 / mixed_ref=1 / me_range=32 / chroma_me=1 / trellis=2 / 8x8dct=1 / cqm=0 / deadzone=21,11 / fast_pskip=1 / chroma_qp_offset=-3 / threads=6 / lookahead_threads=1 / sliced_threads=0 / nr=0 / decimate=1 / interlaced=0 / bluray_compat=0 / constrained_intra=0 / bframes=4 / b_pyramid=2 / b_adapt=2 / b_bias=0 / direct=3 / weightb=1 / open_gop=0 / weightp=2 / keyint=250 / keyint_min=23 / scenecut=40 / intra_refresh=0 / rc_lookahead=60 / rc=crf / mbtree=1 / crf=17.0 / qcomp=0.60 / qpmin=0 / qpmax=69 / qpstep=4 / vbv_maxrate=40000 / vbv_bufsize=40000 / crf_max=0.0 / nal_hrd=none / ip_ratio=1.40 / aq=1:0.70
Language : English
Default : Yes
Forced : Yes
Audio
ID : 2
Format : AC-3
Format/Info : Audio Coding 3
Mode extension : CM (complete main)
Format settings, Endianness : Big
Codec ID : A_AC3
Duration : 1h 31mn
Bit rate mode : Constant
Bit rate : 640 Kbps
Channel(s) : 6 channels
Channel positions : Front: L C R, Side: L R, LFE
Sampling rate : 48.0 KHz
Bit depth : 16 bits
Compression mode : Lossy
Stream size : 418 MiB (6%)
Title : English
Language : English
Default : Yes
Forced : Yes

Скриншоты



Анимированные скриншоты для оценки 3Д-эффекта



Проверено на ТВ Samsung 40C7000, Samsung 46D7000 и Philips 42PFL7606H
Остальные раздачи этого фильма (3)
Благодарности релизеру (32)

Торрент:

Статус:

Размер:

Зарегистрирован   [ 2013-03-09 23:53 ]

проверено

6.59 GB

 
 Мнение о фильме (22)

1, 2  След.






5shadow2, на любителя, меня не особо впечатлил, а жена в восторге была, в кино смотрели
 

Отличный отдыхающий фильм, смотрел в кино, наконец-то дождался на этом сайте, для добавления в свою коллекцию.
 

Жена и дочка оч.любят цирк,так что качаю однозначно!На руторе лежит в 2д-отзывы более чем положительные!За релиз отдельное спасибо!
 

Я не фанат подобного жанра, но посмотрел с удовольствием. 3D очень даже к месту.
 

Спасибо,мне это зрелище понравилось,как в сказке!
 

Спасибо релизёру!Хотел посмотреть всемирно известный цирк.Посмотрел.Особого восторга не было.Шоу красивое,цирк- так себе.3D понравилось.
 

Двоякое впечатление, сначала вроде интересно, а со второй половины можно уснуть) 3D хорошего качества
 

Цирк впечатляющий. Смотрится красиво, но влюбленная сюжетная линия просматривается трудновато.
 

очень понравилось спасибо
 

Дю Солей - мерзкое зрелище.
 

webwalk, а мерзкое в чем уважаемый?
 

Я люблю цирк!
 

Постановки этого цирка семье очень нравятся. 3D хорошее. Спасибо !
 

очень хороший цирковой спектакль. наслаждался. 3д без вылетов , но в тему
 

фильм классный, посмотрели семьей с удовольствием. 3 д без вылетов но в хорошем объеме. спасибо большое.
 

Прекрасное 3D, красивая картинка. Правда на 2 часа меня не хватило, красота усыпляет
 

Мне понравился.
 

прикольно, но для фанатов....(не люблю цирк)
 

На любителя.
 

огромное спс просто отпад супер
 

Страница 1 из 2

1, 2  След.