Торренты   
 
 


Доспехи Бога 3: Миссия Зодиак / Chinese Zodiac [2012 г., BDrip, 1080p, Anamorph SideBySide]

Рейтинг 3D:
98 голосов
6.2
Рейтинг фильма:
103 голосов
7.3
 
Вы должны быть авторизированы,
чтобы ставить оценки


Доспехи Бога 3: Миссия Зодиак / Chinese Zodiac
Год выпуска: 2012
Страна: Гонконг, Китай
Жанр: боевик, комедия, приключения
Продолжительность: 02:03:05
Перевод: Профессиональный (полное дублирование)
Субтитры: есть
Режиссер: Джеки Чан
В ролях: Джеки Чан, Квон Сан У, Ляо Фань, Синтхун Яо, Чжан Ланьсинь, Лаура Вейссбеккер, Оливер Платт, Шу Ци, Дэниэл Ву, Кэйтлин Дешель
Описание:
Главный герой истории - работающий по всему миру охотник за сокровищами Джей Си по кличке Ястреб. Известный антиквар предлагает ему отыскать шесть редких статуэток в виде голов животных. В свое время эти бронзовые скульптуры входили в набор из 12-ти предметов, олицетворявших знаки зодиака. Фигурки украшали фонтан легендарного Летнего дворца на окраине Пекина. В 1860 году величественное сооружение было разграблено и разрушено англо-французскими войсками на исходе Второй опиумной войны, а статуэтки безвозвратно утеряны.
Сначала Джей Си с командой помощников отправляется во Францию, поскольку две статуэтки хранятся у одного из французских коллекционеров. В процессе операции по изъятию бронзовых скульптур из хорошо охраняемого замка Джей Си знакомится с Коко - китайской студенткой, учащейся в Париже. Девушка принимает активное участие в глобальной кампании по возвращению утраченных культурных ценностей в страны, откуда они были вывезены. Попутно Джей Си наживает себе злейшего врага в лице Пьера, шефа охраны замка Шато Марсо. Вместе с тем, охотник за сокровищами обретает верного друга в лице Кэтрин, разорившейся аристократки, в доме которой он находит одну из статуэток. Коко и Кэтрин присоединяются к компании Ястреба.
Группа в обновленном составе направляется на тропический остров, где среди обломков севшего на мель корабля спрятаны еще две статуэтки. В тропиках Джею Си и его друзьям противостоит банда разношерстных пиратов. Только благодаря безупречным боевым навыкам героя удается одержать верх. Вернувшись домой, Джей Си с удивлением узнает, что таинственный заказчик уже собрал шесть других статуэток. Ничего удивительного в том, что Ястреб собирается преподать ему урок хороших манер.
Качество: BDrip by Alexman©
Формат 3D: Anamorph SideBySide
Порядок ракурсов: Левый ракурс первый
Видео: AVC / 23,976 fps / 1920х1080p / 14.3 Mbps
Аудио: Русский дублированный / AC3 / 48 KHz / 5.1 ch / 640 Kbps
Субтитры: русские, полные, вшитые .srt

MediaInfo

General
Unique ID : 228672264043517161913837101417111188532 (0xAC08AD13659C360BB2073FA9DB277434)
Complete name : Chinese Zodiac (2012) DUB hSbS by Alexman©.mkv
Format : Matroska
Format version : Version 4 / Version 2
File size : 16.8 GiB
Duration : 2h 3mn
Overall bit rate : 18.5 Mbps
Movie name : Chinese Zodiac (2012) DUB hSbS by Alexman©
Encoded date : UTC 2013-03-12 07:52:06
Writing application : mkvmerge v6.1.0 ('Old Devil') built on Mar 2 2013 14:32:37
Writing library : libebml v1.3.0 + libmatroska v1.4.0
Video
ID : 1
Format : AVC
Format/Info : Advanced Video Codec
Format profile : High@L4.1
Format settings, CABAC : Yes
Format settings, ReFrames : 4 frames
Codec ID : V_MPEG4/ISO/AVC
Duration : 2h 3mn
Bit rate : 18.5 Mbps
Width : 1 920 pixels
Height : 1 080 pixels
Display aspect ratio : 16:9
Frame rate mode : Constant
Frame rate : 23.976 fps
Color space : YUV
Chroma subsampling : 4:2:0
Bit depth : 8 bits
Scan type : Progressive
Bits/(Pixel*Frame) : 0.373
Stream size : 15.9 GiB (95%)
Title : Chinese Zodiac
Writing library : x264 core 129 r2245 bc13772
Encoding settings : cabac=1 / ref=4 / deblock=1:-3:-3 / analyse=0x3:0x113 / me=umh / subme=9 / psy=1 / psy_rd=1.00:0.15 / mixed_ref=1 / me_range=32 / chroma_me=1 / trellis=2 / 8x8dct=1 / cqm=0 / deadzone=21,11 / fast_pskip=1 / chroma_qp_offset=-3 / threads=6 / lookahead_threads=1 / sliced_threads=0 / nr=0 / decimate=1 / interlaced=0 / bluray_compat=0 / constrained_intra=0 / bframes=4 / b_pyramid=2 / b_adapt=2 / b_bias=0 / direct=3 / weightb=1 / open_gop=0 / weightp=2 / keyint=250 / keyint_min=23 / scenecut=40 / intra_refresh=0 / rc_lookahead=60 / rc=crf / mbtree=1 / crf=17.0 / qcomp=0.60 / qpmin=0 / qpmax=69 / qpstep=4 / vbv_maxrate=40000 / vbv_bufsize=40000 / crf_max=0.0 / nal_hrd=none / ip_ratio=1.40 / aq=1:0.70
Language : Chinese
Default : Yes
Forced : No
Audio
ID : 2
Format : AC-3
Format/Info : Audio Coding 3
Mode extension : CM (complete main)
Format settings, Endianness : Big
Codec ID : A_AC3
Duration : 2h 3mn
Bit rate mode : Constant
Bit rate : 640 Kbps
Channel(s) : 6 channels
Channel positions : Front: L C R, Side: L R, LFE
Sampling rate : 48.0 KHz
Bit depth : 16 bits
Compression mode : Lossy
Stream size : 563 MiB (3%)
Title : Русский дублированный
Language : Russian
Default : Yes
Forced : Yes
Text
ID : 3
Format : UTF-8
Codec ID : S_TEXT/UTF8
Codec ID/Info : UTF-8 Plain Text
Title : Русские полные
Language : Russian
Default : No
Forced : No

Скриншоты



Анимированные скриншоты для оценки 3Д-эффекта



Проверено на ТВ Samsung 40C7000 и Samsung 46D7000
Остальные раздачи этого фильма (4)
Благодарности релизеру (62)

Торрент:

Статус:

Размер:

Зарегистрирован   [ 2013-03-12 12:48 ]

проверено

16.83 GB

 
 Мнение о фильме (44)

1, 2, 3  След.






смотрел в 2D, дико разочарован, отрезок с пиратами - юмор уровня китайских комедийных боевиков 80'х... сплошное детство одним словом!
 

не знаю , нормальное 3д , по крайней мере намного лучше ,чем в Астериксе
 
евгения мурашко Профиль 13-Мар-2013 10:50

"Доспехи Бога" 86-го мой любимый фильм у Джеки, но это было почти 30 лет назад!Сейчас,наверное,он уже кости не ломает.
 

Спасибо уважаемому релизеру!
Смотрел на встроенном плеере LG 42 LM640T через HMS.
Всё в стиле "Доспехи Бога" с центровой фигурой Джеки Чана. В каком возрасте, а вытворяет по сей день. Поклон за это. Посмотрел всей семьёй. Хорошая динамичная картина с юмором. Главное относиться к фильму как и к прошлым частям. Достойное продолжение.
ИМХО.
 

Фильм в стиле раннего творчества Джеки. Не америкосовский стиль, а именно его родной. Поэтому понравится тем, кто увлекался его кинофильмами раньше. :-)
 

Пора, пора уже Джеки на пенсию...
 

Посмотрел фильм, стареет Джеки, стареет.... единственно что в фильме понравилось, так это как его снимали ( вместе с титрами идёт),3D не оч понравилось, включил просто в 2D на середине фильма.В общем для галочки посмотреть стоит, но удавольствия большого не получил.
 

Замечательный фильм!Отличные спецэффекты и добрый юмор!Смотрели всей семьёй ,очень фильм понравился!Очень любим фильмы Джеки Чана!
 

3Д в этом фильме смотреть только глаза уродовать. Ф топку, одназначнА!
 

Таки надо не 3д смотреть в этом фильме,а этот ФИЛЬМ В 3Д! И вам понравиться:)))
 

как ты не говори, что ты не говори, хоть как ты его не смотри, хоть вверх ногами, что там должно нравиться-в принципе не ясно и не понятно. Фильму место в разделе ФИЛЬМЫ СРЕДНЕГО КАЧЕСТВА.
 

descent52, не нужно писать о том, чего не понимаешь.
 

Пишу после просмотра свое личное мнение. Фильм разочаровал. Все происходящее - просто бред сумасшедшего. Хороших трюков мало. С таким игнорированием реальности не спасти никакие культурные ценности. Джеки решил вспомнить свою юность. Но почему я должен от этого страдать? Шутка. Надеюсь в дальнейшем он опять повзрослеет...
 

Фильм отличный. Тролли залезьте со своим мнением сами знаете куда, вам даже в ваши молодые годы подобного никак не сделать, в 58 лет Джеки не стареет, такие трюки сделают единицы в таком то возрасте!!! Желаю ему еще 100 лет сниматься и не стареть и духом и телом.
p.s. за сто лет сменится не одно поколение троллей ))))
 

Фильм отличный. спасибо
 

За фильм спасибо, но пока еще не смотрел. Хоббита три недели назад как скачал, а посмотреть все нет времени.
 

да нормальный фильм можна глянуть
 

Экшн сцены на высоте как всегда. Но вот с постановкой и сценарием полный провал. Не игра а сплошные вальяжные обозначения. Сцена с пиратами на уровне любительского КВН. Всё слишком затянуто, как будто смотришь финское кино. По кадрам из титров видно, что Джеки вполне себе живчик, смеётся, куражится, а в самом фильме он нарочито серьёзный. Меня до последней минуты не покидало ощущение, что он мог снять фильм на порядок динамичнее и смешнее.
 

прочитал отзывы и просто в шоке от них . кому пираты не по нраву , кому трюки не угодили ... эти мнения сборища троллей старпёров !
Я сам лично ожидал худшего , просмотрел на одном дыхании . Сценарий , диалоги , трюки , 3D , юмор всё на высоте !
p.s. немогу понять почему сцена с пиратами многим не по нраву ...
 
ВАСИЛИЙ СОЛОМОН Профиль 27-Мар-2013 14:53

Местами достаточно круто, местами ляпы конкретные, такое впечатление что хотели снять 2 серии-не хватило желания-слепили в один кусок)))
 

Страница 1 из 3

1, 2, 3  След.