Торренты   
 
 


Дocпeхи Бoгa 3: Mиccия Зoдиaк / Сhinеsе Zоdiас (Джeки Чaн) [2012 г., BDRip, Crop Anamorph OverUnder]

Рейтинг 3D:
98 голосов
6.2
Рейтинг фильма:
103 голосов
7.3
 
Вы должны быть авторизированы,
чтобы ставить оценки


Дocпeхи Бoгa 3: Mиccия Зoдиaк / Сhinеsе Zоdiас
Год выпуска: 2012
Страна: Гонконг, Китай
Жанр: Боевик, Комедия, Приключения
Продолжительность: 02:03:05
Перевод: Профессиональный (полное дублирование)
Режиссер: Джeки Чaн
В ролях: Джеки Чан, Квон Сан У, Ляо Фань, Синтхун Яо, Чжан Ланьсинь, Лаура Вейссбеккер, Оливер Платт, Шу Ци, Дэниэл Ву, Кэйтлин Дешель
Описание: Главный герой истории — работающий по всему миру охотник за сокровищами Джей Си по кличке Ястреб. Известный антиквар предлагает ему отыскать шесть редких статуэток в виде голов животных. В свое время эти бронзовые скульптуры входили в набор из 12-ти предметов, олицетворявших знаки зодиака. Фигурки украшали фонтан легендарного Летнего дворца на окраине Пекина. В 1860 году величественное сооружение было разграблено и разрушено англо-французскими войсками на исходе Второй опиумной войны, а статуэтки безвозвратно утеряны.
Сначала Джей Си с командой помощников отправляется во Францию, поскольку две статуэтки хранятся у одного из французских коллекционеров. В процессе операции по изъятию бронзовых скульптур из хорошо охраняемого замка Джей Си знакомится с Коко — китайской студенткой, учащейся в Париже. Девушка принимает активное участие в глобальной кампании по возвращению утраченных культурных ценностей в страны, откуда они были вывезены. Попутно Джей Си наживает себе злейшего врага в лице Пьера, шефа охраны замка Шато Марсо. Вместе с тем, охотник за сокровищами обретает верного друга в лице Кэтрин, разорившейся аристократки, в доме которой он находит одну из статуэток. Коко и Кэтрин присоединяются к компании Ястреба.
Группа в обновленном составе направляется на тропический остров, где среди обломков севшего на мель корабля спрятаны еще две статуэтки. В тропиках Джею Си и его друзьям противостоит банда разношерстных пиратов. Только благодаря безупречным боевым навыкам героя удается одержать верх. Вернувшись домой, Джей Си с удивлением узнает, что таинственный заказчик уже собрал шесть других статуэток. Ничего удивительного в том, что Ястреб собирается преподать ему урок хороших манер.
Внимание: Справа и слева у видеоряда обрезано по 248р, что дает возможность просмотра на полный экран (без черных полос) на телевизорах с соотношением сторон 16:9 без изменения пропорций.
Более подробная информация
Релиз группы:
Формат 3D: OverUnder BDRip, Crop Anamorph
Видео: AVC, High@L4.0, 1920x1080, 23.976 fps, 20,8 Мбит/сек
Аудио: Rus,AC-3, 6 каналов, 640 Кбит/сек, 48,0 КГц

Скриншоты




Media Info

Общее
Уникальный идентификатор : 180631875886403471662659346288147384211 (0x87E46F11F9EDB1478BE27D0240F74793)
Полное имя : E:\STEREO CROP\Chinese Zodiac_(CROP)_ Rip by Dag13.mkv
Формат : Matroska
Версия формата : Version 2
Размер файла : 18,8 Гбайт
Продолжительность : 2 ч. 3 м.
Общий поток : 21,9 Мбит/сек
Дата кодирования : UTC 2013-03-13 10:14:01
Программа кодирования : mkvmerge v3.4.0 ('Rapunzel') сборка от May 15 2010 09:38:20
Библиотека кодирования : libebml v0.8.0 + libmatroska v0.9.0
Видео
Идентификатор : 1
Формат : AVC
Формат/Информация : Advanced Video Codec
Профиль формата : High@L4.0
Параметр CABAC формата : Да
Параметр ReFrames формата : 4 кадра
Идентификатор кодека : V_MPEG4/ISO/AVC
Продолжительность : 2 ч. 3 м.
Битрейт : 20,8 Мбит/сек
Ширина : 1920 пикселей
Высота : 1080 пикселей
Соотношение сторон : 16:9
Режим частоты кадров : Постоянный
Частота кадров : 23,976 кадра/сек
Цветовое пространство : YUV
Субдискретизация насыщенности : 4:2:0
Битовая глубина : 8 бит
Тип развёртки : Прогрессивная
Бит/(Пиксели*Кадры) : 0.418
Размер потока : 17,9 Гбайт (95%)
Заголовок : Rip by Dag13
Библиотека кодирования : x264 core 120 r2145 748fe16
Настройки программы : cabac=1 / ref=4 / deblock=1:-3:-3 / analyse=0x3:0x113 / me=umh / subme=9 / psy=1 / psy_rd=1.00:0.00 / mixed_ref=1 / me_range=16 / chroma_me=1 / trellis=2 / 8x8dct=1 / cqm=0 / deadzone=21,11 / fast_pskip=1 / chroma_qp_offset=-2 / threads=9 / sliced_threads=0 / nr=0 / decimate=1 / interlaced=0 / bluray_compat=0 / constrained_intra=0 / bframes=6 / b_pyramid=2 / b_adapt=2 / b_bias=0 / direct=3 / weightb=1 / open_gop=0 / weightp=2 / keyint=250 / keyint_min=23 / scenecut=40 / intra_refresh=0 / rc_lookahead=60 / rc=crf / mbtree=1 / crf=18.0 / qcomp=0.60 / qpmin=1 / qpmax=69 / qpstep=4 / ip_ratio=1.40 / aq=1:1.00
Язык : English
Default : Нет
Forced : Нет
Аудио
Идентификатор : 2
Формат : AC-3
Формат/Информация : Audio Coding 3
Расширение режима : CM (complete main)
Параметр Endianness формата : Big
Идентификатор кодека : A_AC3
Продолжительность : 2 ч. 3 м.
Вид битрейта : Постоянный
Битрейт : 640 Кбит/сек
Каналы : 6 каналов
Расположение каналов : Front: L C R, Side: L R, LFE
Частота : 48,0 КГц
Битовая глубина : 16 бит
Метод сжатия : С потерями
Размер потока : 563 Мбайт (3%)
Язык : Russian
Default : Да
Forced : Нет
Остальные раздачи этого фильма (4)
Благодарности релизеру (62)

Торрент:

Статус:

Размер:

Зарегистрирован   [ 2013-03-13 19:55 ]

проверено

18.8 GB

 
 Мнение о фильме (44)

1, 2, 3  След.






смотрел в 2D, дико разочарован, отрезок с пиратами - юмор уровня китайских комедийных боевиков 80'х... сплошное детство одним словом!
 

не знаю , нормальное 3д , по крайней мере намного лучше ,чем в Астериксе
 
евгения мурашко Профиль 13-Мар-2013 10:50

"Доспехи Бога" 86-го мой любимый фильм у Джеки, но это было почти 30 лет назад!Сейчас,наверное,он уже кости не ломает.
 

Спасибо уважаемому релизеру!
Смотрел на встроенном плеере LG 42 LM640T через HMS.
Всё в стиле "Доспехи Бога" с центровой фигурой Джеки Чана. В каком возрасте, а вытворяет по сей день. Поклон за это. Посмотрел всей семьёй. Хорошая динамичная картина с юмором. Главное относиться к фильму как и к прошлым частям. Достойное продолжение.
ИМХО.
 

Фильм в стиле раннего творчества Джеки. Не америкосовский стиль, а именно его родной. Поэтому понравится тем, кто увлекался его кинофильмами раньше. :-)
 

Пора, пора уже Джеки на пенсию...
 

Посмотрел фильм, стареет Джеки, стареет.... единственно что в фильме понравилось, так это как его снимали ( вместе с титрами идёт),3D не оч понравилось, включил просто в 2D на середине фильма.В общем для галочки посмотреть стоит, но удавольствия большого не получил.
 

Замечательный фильм!Отличные спецэффекты и добрый юмор!Смотрели всей семьёй ,очень фильм понравился!Очень любим фильмы Джеки Чана!
 

3Д в этом фильме смотреть только глаза уродовать. Ф топку, одназначнА!
 

Таки надо не 3д смотреть в этом фильме,а этот ФИЛЬМ В 3Д! И вам понравиться:)))
 

как ты не говори, что ты не говори, хоть как ты его не смотри, хоть вверх ногами, что там должно нравиться-в принципе не ясно и не понятно. Фильму место в разделе ФИЛЬМЫ СРЕДНЕГО КАЧЕСТВА.
 

descent52, не нужно писать о том, чего не понимаешь.
 

Пишу после просмотра свое личное мнение. Фильм разочаровал. Все происходящее - просто бред сумасшедшего. Хороших трюков мало. С таким игнорированием реальности не спасти никакие культурные ценности. Джеки решил вспомнить свою юность. Но почему я должен от этого страдать? Шутка. Надеюсь в дальнейшем он опять повзрослеет...
 

Фильм отличный. Тролли залезьте со своим мнением сами знаете куда, вам даже в ваши молодые годы подобного никак не сделать, в 58 лет Джеки не стареет, такие трюки сделают единицы в таком то возрасте!!! Желаю ему еще 100 лет сниматься и не стареть и духом и телом.
p.s. за сто лет сменится не одно поколение троллей ))))
 

Фильм отличный. спасибо
 

За фильм спасибо, но пока еще не смотрел. Хоббита три недели назад как скачал, а посмотреть все нет времени.
 

да нормальный фильм можна глянуть
 

Экшн сцены на высоте как всегда. Но вот с постановкой и сценарием полный провал. Не игра а сплошные вальяжные обозначения. Сцена с пиратами на уровне любительского КВН. Всё слишком затянуто, как будто смотришь финское кино. По кадрам из титров видно, что Джеки вполне себе живчик, смеётся, куражится, а в самом фильме он нарочито серьёзный. Меня до последней минуты не покидало ощущение, что он мог снять фильм на порядок динамичнее и смешнее.
 

прочитал отзывы и просто в шоке от них . кому пираты не по нраву , кому трюки не угодили ... эти мнения сборища троллей старпёров !
Я сам лично ожидал худшего , просмотрел на одном дыхании . Сценарий , диалоги , трюки , 3D , юмор всё на высоте !
p.s. немогу понять почему сцена с пиратами многим не по нраву ...
 
ВАСИЛИЙ СОЛОМОН Профиль 27-Мар-2013 14:53

Местами достаточно круто, местами ляпы конкретные, такое впечатление что хотели снять 2 серии-не хватило желания-слепили в один кусок)))
 

Страница 1 из 3

1, 2, 3  След.