Торренты   
 
 

 

Снeжнaя кoрoлeвa 3D [2012, BDrip, half1080p, Anamorph SideBySide]

Рейтинг 3D:
76 голосов
7.8
Рейтинг фильма:
73 голосов
7.3
 
Вы должны быть авторизированы,
чтобы ставить оценки


Снeжнaя кoрoлeвa 3D
Год выпуска: 2012
Страна: Россия
Студия: Wizart Animation, Bazelevs Distribution, Inlay Fil
Жанр: Мультфильм, Фэнтези, Приключения, Семейный
Продолжительность: 01:16:06
Перевод: Не требуется
Режиссеры: Максим Свешников, Владлен Барбэ
Роли озвучивали: Герда - Анна Шурочкина (Нюша) , Орм - Иван Охлобыстин , Кай - Рамиля Искандер , Снежная королева - Галина Тюнина , Воспитатель - Дмитрий Нагиев , Дочь атаманши - Лиза Арзамасова , Атаманша - Анна Ардова , Цветочница - Людмила Артемьева , Король - Юрий Стоянов , Принц / Мастер Вегард / Слуга - Михаил Тихонов
Описание: В стремлении сотворить Новый мир — холодный и практичный, где четкость линий призвана заменить эмоции, а северный ветер должен остудить людские души, Снежная Королева избавляется от всех представителей творческих профессий. Маленькой и смелой Герде, отправившейся в опасное путешествие, чтобы спасти своего брата Кая, предстоит столкнуться с этим холодным миром Снежной Королевы. Преодолевая все сложности и преграды на пути к своей цели, Герда не только обретает семью, но и веру в себя, находит поддержку новых друзей.
Качество: BDrip by Alexman©
Формат 3D: Anamorph SideBySide / Горизонтальная анаморфная стереопара
Порядок ракурсов: левый ракурс первый
Видео: AVC, High@L4.1, 1920x1080, 23.976 fps, 10.1 Mbps
Аудио: Русский / AC3 / 48 KHz / 5.1 ch / 640 Kbps

MediaInfo

General
Unique ID : 233363830667124567765107519019803601880 (0xAF903D2B4B691FFA91347019D431EBD8)
Complete name : Снежная королева (2012) hSbS 1080p by Alexman©.mkv
Format : Matroska
Format version : Version 4 / Version 2
File size : 5.80 GiB
Duration : 1h 16mn
Overall bit rate : 10.9 Mbps
Movie name : Снежная королева
Encoded date : UTC 2013-03-14 11:31:18
Writing application : mkvmerge v6.1.0 ('Old Devil') built on Mar 2 2013 14:32:37
Writing library : libebml v1.3.0 + libmatroska v1.4.0
Video
ID : 1
Format : AVC
Format/Info : Advanced Video Codec
Format profile : High@L4.1
Format settings, CABAC : Yes
Format settings, ReFrames : 4 frames
Codec ID : V_MPEG4/ISO/AVC
Duration : 1h 16mn
Bit rate : 10.1 Mbps
Width : 1 920 pixels
Height : 1 080 pixels
Display aspect ratio : 16:9
Frame rate mode : Constant
Frame rate : 23.976 fps
Color space : YUV
Chroma subsampling : 4:2:0
Bit depth : 8 bits
Scan type : Progressive
Bits/(Pixel*Frame) : 0.202
Stream size : 5.35 GiB (92%)
Title : Снежная королева
Writing library : x264 core 129 r2245 bc13772
Encoding settings : cabac=1 / ref=4 / deblock=1:-3:-3 / analyse=0x3:0x113 / me=umh / subme=9 / psy=1 / psy_rd=1.00:0.15 / mixed_ref=1 / me_range=32 / chroma_me=1 / trellis=2 / 8x8dct=1 / cqm=0 / deadzone=21,11 / fast_pskip=1 / chroma_qp_offset=-3 / threads=6 / lookahead_threads=1 / sliced_threads=0 / nr=0 / decimate=1 / interlaced=0 / bluray_compat=0 / constrained_intra=0 / bframes=4 / b_pyramid=2 / b_adapt=2 / b_bias=0 / direct=3 / weightb=1 / open_gop=0 / weightp=2 / keyint=250 / keyint_min=23 / scenecut=40 / intra_refresh=0 / rc_lookahead=60 / rc=crf / mbtree=1 / crf=17.0 / qcomp=0.60 / qpmin=0 / qpmax=69 / qpstep=4 / vbv_maxrate=40000 / vbv_bufsize=40000 / crf_max=0.0 / nal_hrd=none / ip_ratio=1.40 / aq=1:0.70
Language : Russian
Default : Yes
Forced : No
Audio
ID : 2
Format : AC-3
Format/Info : Audio Coding 3
Mode extension : CM (complete main)
Format settings, Endianness : Big
Codec ID : A_AC3
Duration : 1h 16mn
Bit rate mode : Constant
Bit rate : 640 Kbps
Channel(s) : 6 channels
Channel positions : Front: L C R, Side: L R, LFE
Sampling rate : 48.0 KHz
Bit depth : 16 bits
Compression mode : Lossy
Stream size : 348 MiB (6%)
Title : Русский оригинальный
Language : Russian
Default : Yes
Forced : Yes

Скриншоты



Анимированные скриншоты для оценки 3Д-эффекта



Проверено на ТВ Samsung 40C7000, Samsung 46D7000 и Philips 42PFL7606H
Остальные раздачи этого фильма (3)
Благодарности релизеру (24)

Торрент:

Статус:

Размер:

Зарегистрирован   [ 2013-03-14 16:05 ]

проверено

5.8 GB

 
 Мнение о фильме (12)





Сам пока не смотрел, но в параллельной раздаче:
Мультфильм очень порадовал, 3д просто нет слов СУПЕР!!!!! Ахлобыстин красавчик!!!
 

очень порадовал, nice
 

Огромное спасибо - отличный мульт!!!
 

3 д отличное , звук отличный, мульт на высоте!!
только на телеке LG родной медиаплеер зависает, пришлось ноут подключать и досматривать.
 

Посмотрел начало, для убеждения эффекты есть, убедился в этом и выключил, досмотрю как будет время)))
 

Я хоть и не молодая женщина,но очень люблю мультфильмы, и мои внуки тоже !!!Очень понравился мультфильм Снежная королева !!! Спасибо за раздачу и,её создателям!!!
 
светлана заикина Профиль 30-Июн-2013 00:26

всё супер спасибо
 

впечатлило
 

старый по-моему лучше, если смотреть детям
 
Евгений110852 Профиль 13-Сен-2013 08:35

не понравился совсем! осилила только первые 15 минут, показался пошлым, глупым... даже слов нет, 3D не заметила
 

Встаньте на раздачу хоть кто нибудь.заранее спасибо)))
 

Встаньте на раздачу хоть кто нибудь. спасибо)))