Торренты   
 
 

 

Снежная королева (Maкcим Cвeшникoв, Bлaдлeн Бapбэ) [2012 г., Anamorph OverUnder]

Рейтинг 3D:
76 голосов
7.8
Рейтинг фильма:
73 голосов
7.3
 
Вы должны быть авторизированы,
чтобы ставить оценки


-Снежная королева 3Д Год выпуска: 2012
Страна: Россия (Wizart Animation, Bazelevs Distribution, Inlay Film)
Жанр: Мультфильм, Фэнтези, Приключения, Семейный
Продолжительность: 01:16:05
Перевод: Не требуется
Режиссер: Maкcим Cвeшникoв, Bлaдлeн Бapбэ--Роли озвучивали:Герда - Анна Шурочкина (Нюша)
Орм - Иван Охлобыстин
Кай - Рамиля Искандер
Снежная королева - Галина Тюнина
Воспитатель - Дмитрий Нагиев
Дочь атаманши - Лиза Арзамасова
Атаманша - Анна Ардова
Цветочница - Людмила Артемьева
Король - Юрий Стоянов
Принц / Мастер Вегард / Слуга - Михаил Тихонов
--Описание: В стремлении сотворить Новый мир — холодный и практичный, где четкость линий призвана заменить эмоции, а северный ветер должен остудить людские души, Снежная Королева избавляется от всех представителей творческих профессий. Маленькой и смелой Герде, отправившейся в опасное путешествие, чтобы спасти своего брата Кая, предстоит столкнуться с этим холодным миром Снежной Королевы. Преодолевая все сложности и преграды на пути к своей цели, Герда не только обретает семью, но и веру в себя, находит поддержку новых друзей.
-Премьера: 1 января 2013 (31 декабря 2012)
Бюджет: $7 000 000
Кассовые сборы: $9 700 000
Релиз на DVD и Blu-Ray:31 января 2013

. .
Проверено на встроенном плейере ТВ LG LW 650S
--Качество: BDrip (by m@rik05)
Контейнер: MKV
Формат 3D: Anamorph OverUnder / Вертикальная анаморфная стереопара
Порядок ракурсов: левый ракурс первый
Видео кодек: x264
Аудио кодек: AC3-Видео: AVC / 23,976 fps / 1920х1080p / 12,1 Mbps
Аудио: Русский / AC3 / 48 KHz /5.1 ch / 640 Kbps
Субтитры: нет

Log x264

Media Info

Общее
Уникальный идентификатор : 189242932061551153719753236685447283066 (0x8E5EDCEB1584E23AA0364FA94A5CC17A)
Полное имя : E:\3Д мультики\Снeжнaя кoрoлeвa (3D )2012.BDRip.1080p.Half OU.x264.AC3 Rus.3D-RuGroup.(m@rik05).mkv
Формат : Matroska
Версия формата : Version 4 / Version 2
Размер файла : 6,91 Гбайт
Продолжительность : 1 ч. 16 м.
Общий поток : 13,0 Мбит/сек
Название фильма : Снежная королева 3D (2012) 3D-RuGroup (m@rik05)
Дата кодирования : UTC 2013-03-14 19:50:41
Программа кодирования : mkvmerge v6.1.0 ('Old Devil') built on Mar 2 2013 14:32:37
Библиотека кодирования : libebml v1.3.0 + libmatroska v1.4.0
Видео
Идентификатор : 1
Формат : AVC
Формат/Информация : Advanced Video Codec
Профиль формата : High@L4.1
Параметр CABAC формата : Да
Параметр ReFrames формата : 4 кадра
Идентификатор кодека : V_MPEG4/ISO/AVC
Продолжительность : 1 ч. 16 м.
Битрейт : 12,1 Мбит/сек
Ширина : 1920 пикселей
Высота : 1080 пикселей
Соотношение сторон : 16:9
Режим частоты кадров : Постоянный
Частота кадров : 23,976 кадра/сек
Цветовое пространство : YUV
Субдискретизация насыщенности : 4:2:0
Битовая глубина : 8 бит
Тип развёртки : Прогрессивная
Бит/(Пиксели*Кадры) : 0.243
Размер потока : 6,43 Гбайт (93%)
Заголовок : BDrip 1080p by m@rik05
Библиотека кодирования : x264 core 129 r2245 bc13772
Настройки программы : cabac=1 / ref=4 / deblock=1:-3:-3 / analyse=0x3:0x133 / me=umh / subme=9 / psy=1 / psy_rd=1.00:0.05 / mixed_ref=1 / me_range=16 / chroma_me=1 / trellis=2 / 8x8dct=1 / cqm=0 / deadzone=21,11 / fast_pskip=1 / chroma_qp_offset=-3 / threads=12 / lookahead_threads=2 / sliced_threads=0 / nr=0 / decimate=1 / interlaced=0 / bluray_compat=0 / constrained_intra=0 / bframes=6 / b_pyramid=2 / b_adapt=2 / b_bias=0 / direct=3 / weightb=1 / open_gop=0 / weightp=2 / keyint=250 / keyint_min=23 / scenecut=40 / intra_refresh=0 / rc_lookahead=60 / rc=crf / mbtree=1 / crf=16.0 / qcomp=0.70 / qpmin=10 / qpmax=51 / qpstep=4 / vbv_maxrate=40000 / vbv_bufsize=30000 / crf_max=0.0 / nal_hrd=none / frame-packing=4 / ip_ratio=1.40 / aq=1:0.70
Язык : Russian
Default : Да
Forced : Нет
Аудио
Идентификатор : 2
Формат : AC-3
Формат/Информация : Audio Coding 3
Расширение режима : CM (complete main)
Параметр Endianness формата : Big
Идентификатор кодека : A_AC3
Продолжительность : 1 ч. 16 м.
Вид битрейта : Постоянный
Битрейт : 640 Кбит/сек
Каналы : 6 каналов
Расположение каналов : Front: L C R, Side: L R, LFE
Частота : 48,0 КГц
Битовая глубина : 16 бит
Метод сжатия : С потерями
Размер потока : 348 Мбайт (5%)
Заголовок : AC3 / 5.1 ch / 640 kbps / original
Язык : Russian
Default : Да
Forced : Нет
Меню
00:00:00.000 : en:00:00:00.000
00:09:06.504 : en:00:09:06.504
00:22:52.162 : en:00:22:52.162
00:31:48.532 : en:00:31:48.532
00:41:38.996 : en:00:41:38.996
00:52:20.637 : en:00:52:20.637
01:00:27.999 : en:01:00:27.999
01:11:20.526 : en:01:11:20.526
Остальные раздачи этого фильма (3)
Благодарности релизеру (64)

Торрент:

Статус:

Размер:

Зарегистрирован   [ 2013-03-15 12:54 ]

проверено

6.91 GB

 
 Мнение о фильме (12)





Сам пока не смотрел, но в параллельной раздаче:
Мультфильм очень порадовал, 3д просто нет слов СУПЕР!!!!! Ахлобыстин красавчик!!!
 

очень порадовал, nice
 

Огромное спасибо - отличный мульт!!!
 

3 д отличное , звук отличный, мульт на высоте!!
только на телеке LG родной медиаплеер зависает, пришлось ноут подключать и досматривать.
 

Посмотрел начало, для убеждения эффекты есть, убедился в этом и выключил, досмотрю как будет время)))
 

Я хоть и не молодая женщина,но очень люблю мультфильмы, и мои внуки тоже !!!Очень понравился мультфильм Снежная королева !!! Спасибо за раздачу и,её создателям!!!
 
светлана заикина Профиль 30-Июн-2013 00:26

всё супер спасибо
 

впечатлило
 

старый по-моему лучше, если смотреть детям
 
Евгений110852 Профиль 13-Сен-2013 08:35

не понравился совсем! осилила только первые 15 минут, показался пошлым, глупым... даже слов нет, 3D не заметила
 

Встаньте на раздачу хоть кто нибудь.заранее спасибо)))
 

Встаньте на раздачу хоть кто нибудь. спасибо)))