Торренты   
 
 

 

Великий Гэтсби в 3D, Трейлер / The Great Gatsby in 3D, Trailer [2013 г., DCPrip, Anamorph OverUnder]

Рейтинг 3D:
328 голосов
8.0
Рейтинг фильма:
332 голосов
8.0
 
Вы должны быть авторизированы,
чтобы ставить оценки


Великий Гэтсби в 3D, Трейлер
The Great Gatsby in 3D, Trailer
--Год выпуска: 2013
Страна: Австралия, США
Жанр: драма, мелодрама, ...
Продолжительность: 00:02:30--Описание: «Великий Гэтсби» рассказан от лица как бы Фицджеральда, вероятного писателя Ника Каррауэйя, который весной 1922 года, в эпоху разлагающейся морали, блистательного джаза и «королей контрабандного алкоголя», приезжает со Среднего Запада в Нью-Йорк.
Преследуя собственную американскую мечту, он селится по соседству с таинственным, известным своими вечеринками миллионером Джеем Гэтсби, а на противоположном берегу бухты проживают его кузина Дэзи и ее муж, повеса и аристократ, Том Бьюкенен.
Так Ник оказывается вовлеченным в захватывающий мир богатых — их иллюзий, любви и обманов. Он становится свидетелем происходящего в этом мире и пишет историю невозможной любви, вечных мечтаний и человеческой трагедии, которые являются отражением современных нравов.--Формат 3d: Anamorph OverUnder (левый ракурс верхний)
Качество: DCPrip
Контейнер: mkv
Видео: AVC / 1920х1080 / 24 fps / 12.5 Mbps
Аудио: Русский / AC3 / 6 ch / 448 Kbps / 48 KHz--

MediaInfo:

Код:
General
Unique ID                      : 175658001662861550878039971055573828717 (0x84268023379E9251AC6176FFAA7E846D)
Complete name                  : L:\_3D\3D-Trailers\_2013\Trailer_TheGreatGatsby(3D)HalfOU-abq.mkv
Format                         : Matroska
Format version                 : Version 2
File size                      : 236 MiB
Duration                       : 2mn 30s
Overall bit rate               : 13.2 Mbps
Encoded date                   : UTC 2013-03-15 21:13:28
Writing application            : mkvmerge v4.0.0 ('The Stars were mine') сборка от Jun  6 2010 16:18:42
Writing library                : libebml v1.0.0 + libmatroska v1.0.0
Video
ID                             : 1
Format                         : AVC
Format/Info                    : Advanced Video Codec
Format profile                 : High@L4.1
Format settings, CABAC         : Yes
Format settings, ReFrames      : 4 frames
Codec ID                       : V_MPEG4/ISO/AVC
Duration                       : 2mn 30s
Bit rate                       : 12.5 Mbps
Width                          : 1 920 pixels
Height                         : 1 080 pixels
Display aspect ratio           : 16:9
Frame rate mode                : Constant
Frame rate                     : 24.000 fps
Color space                    : YUV
Chroma subsampling             : 4:2:0
Bit depth                      : 8 bits
Scan type                      : Progressive
Bits/(Pixel*Frame)             : 0.250
Stream size                    : 223 MiB (95%)
Writing library                : x264 core 116 r2074 2641b9e
Encoding settings              : cabac=1 / ref=4 / deblock=1:-3:-3 / analyse=0x3:0x113 / me=umh / subme=9 / psy=1 / psy_rd=1.00:0.15 / mixed_ref=1 / me_range=16 / chroma_me=1 / trellis=2 / 8x8dct=1 / cqm=0 / deadzone=21,11 / fast_pskip=1 / chroma_qp_offset=-3 / threads=6 / sliced_threads=0 / nr=0 / decimate=1 / interlaced=0 / bluray_compat=0 / constrained_intra=0 / bframes=6 / b_pyramid=2 / b_adapt=2 / b_bias=0 / direct=3 / weightb=1 / open_gop=0 / weightp=2 / keyint=240 / keyint_min=24 / scenecut=40 / intra_refresh=0 / rc_lookahead=60 / rc=crf / mbtree=1 / crf=18.0 / qcomp=0.60 / qpmin=0 / qpmax=69 / qpstep=4 / vbv_maxrate=40000 / vbv_bufsize=40000 / crf_max=0.0 / nal_hrd=none / frame-packing=4 / ip_ratio=1.40 / aq=1:0.70
Language                       : English
Default                        : No
Forced                         : No
Audio
ID                             : 2
Format                         : AC-3
Format/Info                    : Audio Coding 3
Mode extension                 : CM (complete main)
Format settings, Endianness    : Big
Codec ID                       : A_AC3
Duration                       : 2mn 30s
Bit rate mode                  : Constant
Bit rate                       : 448 Kbps
Channel(s)                     : 6 channels
Channel positions              : Front: L C R, Side: L R, LFE
Sampling rate                  : 48.0 KHz
Bit depth                      : 16 bits
Compression mode               : Lossy
Stream size                    : 8.04 MiB (3%)
Language                       : Russian
Default                        : Yes
Forced                         : No

Скриншоты

Остальные раздачи этого фильма (4)
Благодарности релизеру (13)

Торрент:

Статус:

Размер:

Зарегистрирован   [ 2013-03-16 13:30 ]

проверено

236 MB

 
 Мнение о фильме (113)

1, 2, 3, 4, 5, 6  След.






как 3d?
 

как 3d?
очень хорошее реальное 3D!
 

В принципе качество картинки очень даже ,учитывая ,что это снято камерой (видимо камера была оочень хорошая ) ,а вот звук ...все зависит от того ,на чем вы будете смотреть этот фильм ,вполне возможно,что на некоторых ноутах ,компах и телевизорах вы послушаете и скажете норм ,но если вы меломан или у вас неплохая акустика ,даже банально хорошие динамики микролаб ,то я думаю будет ощущение "железной коробки" в которой идет звук ,и то не все это так сильно почувствуют ....Итог картинка - хорошо ,3D - норм , звук -средненько ,для тех кто привередлив к звуку ,то не советую ...
 

двоятся все задние планы, звук -же писали. 2D лучше будет, по моему если учесть все минусы
 

Я не буду качать эту чуждую моему русскому сознанию ленту, даже в 3Д, уж извините.
 

Я не буду качать эту чуждую моему русскому сознанию ленту, даже в 3Д, уж извините.
закрывайте раздачу-не проконало!
 

ilyaoranj:
В принципе качество картинки очень даже ,учитывая ,что это снято камерой (видимо камера была оочень хорошая )
:D Как ты себе представляешь "оочень хорошей камерой" слизать 3D фильм с экрана кинотеатра? Может быть 3D-камерой? :D
 

Вне всяких сомнений, это лучший 3D -фильм (в смысле 3D) за последние годы. На фоне потока откровенной конверт-халтуры этот фильм смотрится прямо-таки как жемчужина на куче говна, каковым являются 99% остальных псевдо-3D-поделок последнего времени. Никаких "вылетов", но люди и предметы кажутся настолько реальными, что, кажется, засунь руку в экран, и можно их потрогать. Именно таким и должно быть 3D! Подобным реализмом отличаются, обычно, только театральные 3D съемки, нечто похожее по качеству 3D-эффекта можно увидеть в фильме-концерте The Lord Of The Dance. Плюс к хорошей и честной 3D-камере с явно (но очень умело, качественно и неутомительно для глаз) расширенной стереобазой - очень красочно, изобилие и богатство костюмов и декораций производит впечатление на фоне демонстративно унылой серости и общей
блеклости красок, которые вошли, почему-то, в моду в последнее время.
Что касается самого фильма, то он, безусловно, достойный, я не читал романа и о качестве экранизации не берусь судить, но мне понравилось.
 

Фильм шикарный , 3D тоже норм
 

Спасибо за фильм- очень необычно и красиво - понравился однозначно)))
В 3D- cовершенно иное восприятие-красочно до неправдоподобия)))
спасибо за раздачу)
 

Красивый фильм.
 

Этот фильм, дешовый американский комикс. 3D и Дикаприо там лишнее.
 

спасібо, все замечательно
 

Спасибо за фильм))))
Все что можно было сказать-сказали выше)
Отлично!
 

Эффект 3Д хороший но сам фильм какой-то мрачный и растянутый
 

СПАСИБО!!!))))
 

Фильм просто шикарный!Яркий,красочный,3D просто класс,без вылетов и спецэффектов,но достойно высшей оценки. Сам фильм понравился.Да -это не боевик и не надо ожидать от него зубодробительных трюков и тупых постреляшек.Сколько не смотрел в последнее время так ожидаемых и так разрекламируемых фильмов-не один не зацепил,и нет желания пересматривать.А этот фильм однозначно в коллекцию! Большое спасибо релизёру!
 

Посмотреть стоит, фильм хороший. Но сам фильм не для 3д. И снят он не для 3д. Эфектов мало. Но фильм гуд.
 

Как говорится, на вкус и цвет все фломастеры разные, но фильм посмотреть стоит, время потратил незря.
 

Второй раз пытался посмотреть, так и не досмотрел. Сначала думал что смотрю дом 2, а потом просто красивые картинки.
 

Страница 1 из 6

1, 2, 3, 4, 5, 6  След.