Торренты   
 
 

 

Золушка: Полный вперед! / Cendrillon au Far West [2011, BDrip, half1080p, Anamorph SideBySide]

Рейтинг 3D:
21 голосов
7.3
Рейтинг фильма:
20 голосов
5.7
 
Вы должны быть авторизированы,
чтобы ставить оценки


© Закрыто правообладателем

Год выпуска: 2012
Страна: Франция (Angoa-Agicoa, Backup Films, CNC и др.)
Жанр: мультфильм, комедия, приключения
Продолжительность: 01:21:07
Перевод: Профессиональный (дублированный)
Русские субтитры: нет
Режиссер: Паскаль Эрольд
Сценарий: Паскаль Эрольд
Продюсер: Паскаль Эрольд, Джереми Бурдек, Серж де Пук
Монтаж: Бертран Мейлар
Роли озвучивали:
Александра Лами, Иоланда Моро, Изабель Нанти, Антуан де Кон, Мишель Бужена и др.
Роли дублировали:
Валерия Кудрявцева, Тимур Родригез и др.
Описание:
Представьте себе, что всем известная история Золушки, превращается в анимационную комедию, да еще и снятую в 3D! Вам интересно? А если представить, что Золушка живет в волшебной стране, по которой путешествует русский принц со своей тётей? Еще интереснее? Вас ждут невероятные приключения, похищения и погони, большая дружба, настоящая любовь и… выбитый зуб! И никто, ни злая мачеха со своими дочками, ни разбойники-пираты не смогут помешать Золушке и Принцу обрести свое счастье!
--Премьера: 1 июня 2012 (2 августа 2012)


Проверено на ТВ Samsung 40C7000, Samsung 46D7000 и Philips 42PFL7606H
--
Качество: BDrip by Alexman©
Контейнер: MKV
Формат 3D: Anamorph SideBySide / Горизонтальная анаморфная стереопара
Порядок ракурсов: левый ракурс первый
Видео кодек: x264
Аудио кодек: AC3
Видео: AVC / 23,976 fps / 1920х1080p / 12.5 Mbps
Аудио 1: Русский / AC3 / 48 KHz / 5.1 ch / 640 Kbps
Аудио 2: English / AC3 / 48 KHz / 5.1 ch / 640 Kbps

MediaInfo

General
Unique ID : 191459997232348585371773372607769494948 (0x9009DAABAF67160DA0D1B531BAAA45A4)
Complete name : Cendrillon au Far West (2012) DUB hSbS 1080p by Alexman©.mkv
Format : Matroska
Format version : Version 4 / Version 2
File size : 7.98 GiB
Duration : 1h 21mn
Overall bit rate : 14.1 Mbps
Encoded date : UTC 2013-03-15 16:13:35
Writing application : mkvmerge v6.1.0 ('Old Devil') built on Mar 2 2013 14:32:37
Writing library : libebml v1.3.0 + libmatroska v1.4.0
Video
ID : 1
Format : AVC
Format/Info : Advanced Video Codec
Format profile : High@L4.1
Format settings, CABAC : Yes
Format settings, ReFrames : 4 frames
Codec ID : V_MPEG4/ISO/AVC
Duration : 1h 21mn
Bit rate : 12.5 Mbps
Width : 1 920 pixels
Height : 1 080 pixels
Display aspect ratio : 16:9
Frame rate mode : Constant
Frame rate : 23.976 fps
Color space : YUV
Chroma subsampling : 4:2:0
Bit depth : 8 bits
Scan type : Progressive
Bits/(Pixel*Frame) : 0.252
Stream size : 7.10 GiB (89%)
Title : Cendrillon au Far West
Writing library : x264 core 129 r2245 bc13772
Encoding settings : cabac=1 / ref=4 / deblock=1:-3:-3 / analyse=0x3:0x113 / me=umh / subme=9 / psy=1 / psy_rd=1.00:0.15 / mixed_ref=1 / me_range=32 / chroma_me=1 / trellis=2 / 8x8dct=1 / cqm=0 / deadzone=21,11 / fast_pskip=1 / chroma_qp_offset=-3 / threads=6 / lookahead_threads=1 / sliced_threads=0 / nr=0 / decimate=1 / interlaced=0 / bluray_compat=0 / constrained_intra=0 / bframes=4 / b_pyramid=2 / b_adapt=2 / b_bias=0 / direct=3 / weightb=1 / open_gop=0 / weightp=2 / keyint=250 / keyint_min=23 / scenecut=40 / intra_refresh=0 / rc_lookahead=60 / rc=crf / mbtree=1 / crf=17.0 / qcomp=0.60 / qpmin=0 / qpmax=69 / qpstep=4 / vbv_maxrate=40000 / vbv_bufsize=40000 / crf_max=0.0 / nal_hrd=none / ip_ratio=1.40 / aq=1:0.70
Language : English
Default : Yes
Forced : No
Audio #1
ID : 2
Format : AC-3
Format/Info : Audio Coding 3
Mode extension : CM (complete main)
Format settings, Endianness : Big
Codec ID : A_AC3
Duration : 1h 21mn
Bit rate mode : Constant
Bit rate : 640 Kbps
Channel(s) : 6 channels
Channel positions : Front: L C R, Side: L R, LFE
Sampling rate : 48.0 KHz
Bit depth : 16 bits
Compression mode : Lossy
Stream size : 371 MiB (5%)
Title : Русский дублированный
Language : Russian
Default : Yes
Forced : Yes
Audio #2
ID : 3
Format : AC-3
Format/Info : Audio Coding 3
Mode extension : CM (complete main)
Format settings, Endianness : Big
Codec ID : A_AC3
Duration : 1h 21mn
Bit rate mode : Constant
Bit rate : 640 Kbps
Channel(s) : 6 channels
Channel positions : Front: L C R, Side: L R, LFE
Sampling rate : 48.0 KHz
Bit depth : 16 bits
Compression mode : Lossy
Stream size : 371 MiB (5%)
Title : English
Language : English
Default : No
Forced : No

Скриншоты



Анимированные скриншоты для оценки 3Д-эффекта



Остальные раздачи этого фильма (3)
Благодарности релизеру (14)

Торрент:

Статус:

Размер:

Зарегистрирован   [ 2013-03-19 13:44 ]

© закрыто правообладателем

7.98 GB

 
 Мнение о фильме (3)





Хороший мультфильм, племяннице очень понравился, сидела в очках-довольная. Говорит я как в кинотеатре. Спасибо за раздачу.
 

Мультик - на один раз. Качество 3D на высоте - отличный объем и глубина, без вылетов но всеравно красиво.
 

ужасный мульт!даже не хотелось до конца досматривать.