Торренты   
 
 

 

Полярные медведи / Polar Bears: A Summer Odyssey [2012, BDrip, half1080p, Anamorph SideBySide]

Рейтинг 3D:
5 голосов
8.2
Рейтинг фильма:
5 голосов
8.8
 
Вы должны быть авторизированы,
чтобы ставить оценки


Полярные медведи / Polar Bears: A Summer Odyssey
Год выпуска: 2012
Страна: Канада | Universal
Жанр: Документальный
Продолжительность: 00:50:06
Перевод: Профессиональный (дублированный)
Режиссер: Сара Робертсон
В ролях: Дэвид Сузуки и белые медведи
Описание: Рассказ о полярных медведях в Хадсон Бэй в естественных условиях обитания. Приблизтесь к их жизни и способах выживания в суровом заполярье с помощью данной истории, снятой в 3Д.
Качество: BDrip by Alexman©
Формат 3D: Anamorph SideBySide / Горизонтальная анаморфная стереопара
Порядок ракурсов: левый ракурс первый
Видео: AVC, High@L4.1, 1920x1080, 23.976 fps, 23.9 Mbps
Аудио:
№1 - Русский дублированный / AC3 / 48 KHz / 5.1 ch / 448 Kbps
№2 - Английский оригинальный / AC3 / 48 KHz / 5.1 ch / 640 Kbps
Субтитры: Русские полные вшитые

MediaInfo

General
Unique ID : 193648855292301609838091850771750594426 (0x91AF69B47E8EA9238593F4318782277A)
Complete name : Polar Bears A Summer Odyssey [Полярные медведи] (2012) DUB hSbS by Alexman©.mkv
Format : Matroska
Format version : Version 4 / Version 2
File size : 8.93 GiB
Duration : 50mn 5s
Overall bit rate : 25.5 Mbps
Movie name : Polar Bears: A Summer Odyssey
Encoded date : UTC 2013-03-20 13:00:45
Writing application : mkvmerge v6.1.0 ('Old Devil') built on Mar 2 2013 14:32:37
Writing library : libebml v1.3.0 + libmatroska v1.4.0
Video
ID : 1
Format : AVC
Format/Info : Advanced Video Codec
Format profile : High@L4.1
Format settings, CABAC : Yes
Format settings, ReFrames : 4 frames
Codec ID : V_MPEG4/ISO/AVC
Duration : 50mn 5s
Bit rate : 23.9 Mbps
Width : 1 920 pixels
Height : 1 080 pixels
Display aspect ratio : 16:9
Frame rate mode : Constant
Frame rate : 23.976 fps
Color space : YUV
Chroma subsampling : 4:2:0
Bit depth : 8 bits
Scan type : Progressive
Bits/(Pixel*Frame) : 0.481
Stream size : 8.37 GiB (94%)
Title : Polar Bears: A Summer Odyssey
Writing library : x264 core 129 r2245 bc13772
Encoding settings : cabac=1 / ref=4 / deblock=1:-3:-3 / analyse=0x3:0x113 / me=umh / subme=9 / psy=1 / psy_rd=1.00:0.15 / mixed_ref=1 / me_range=32 / chroma_me=1 / trellis=2 / 8x8dct=1 / cqm=0 / deadzone=21,11 / fast_pskip=1 / chroma_qp_offset=-3 / threads=6 / lookahead_threads=1 / sliced_threads=0 / nr=0 / decimate=1 / interlaced=0 / bluray_compat=0 / constrained_intra=0 / bframes=4 / b_pyramid=2 / b_adapt=2 / b_bias=0 / direct=3 / weightb=1 / open_gop=0 / weightp=2 / keyint=250 / keyint_min=23 / scenecut=40 / intra_refresh=0 / rc_lookahead=60 / rc=crf / mbtree=1 / crf=17.0 / qcomp=0.60 / qpmin=0 / qpmax=69 / qpstep=4 / vbv_maxrate=40000 / vbv_bufsize=40000 / crf_max=0.0 / nal_hrd=none / ip_ratio=1.40 / aq=1:0.70
Language : English
Default : Yes
Forced : No
Audio #1
ID : 2
Format : AC-3
Format/Info : Audio Coding 3
Mode extension : CM (complete main)
Format settings, Endianness : Big
Codec ID : A_AC3
Duration : 50mn 5s
Bit rate mode : Constant
Bit rate : 448 Kbps
Channel(s) : 6 channels
Channel positions : Front: L C R, Side: L R, LFE
Sampling rate : 48.0 KHz
Bit depth : 16 bits
Compression mode : Lossy
Stream size : 161 MiB (2%)
Title : Русский дублированный
Language : Russian
Default : Yes
Forced : Yes
Audio #2
ID : 3
Format : AC-3
Format/Info : Audio Coding 3
Mode extension : CM (complete main)
Format settings, Endianness : Big
Codec ID : A_AC3
Duration : 50mn 5s
Bit rate mode : Constant
Bit rate : 640 Kbps
Channel(s) : 6 channels
Channel positions : Front: L C R, Side: L R, LFE
Sampling rate : 48.0 KHz
Bit depth : 16 bits
Compression mode : Lossy
Stream size : 229 MiB (3%)
Title : English original
Language : English
Default : No
Forced : No
Text
ID : 4
Format : PGS
Codec ID : S_HDMV/PGS
Codec ID/Info : The same subtitle format used on BDs/HD-DVDs
Title : Русские полные
Language : Russian
Default : No
Forced : No

Скриншоты



Анимированные скриншоты для оценки 3Д-эффекта



Проверено на ТВ Samsung 40C7000, Samsung 46D7000 и Philips 42PFL7606H
Благодарности релизеру (10)

Торрент:

Статус:

Размер:

Зарегистрирован   [ 2013-03-21 12:56 ]

проверено

8.93 GB