Торренты   
 
 

 

Сaйлент Xилл 2 / Silеnt Нill: Rеvelation (Мaйкл Дж. Бaссетт) [2012 г., BDRip, Full OverUnder]

Рейтинг 3D:
64 голосов
8.1
Рейтинг фильма:
65 голосов
6.7
 
Вы должны быть авторизированы,
чтобы ставить оценки


Сaйлент Xилл 2 / Silеnt Нill: Rеvelation
Год выпуска: 2012
Страна: Франция, США, Канада
Жанр: Ужасы, Триллер, Детектив
Продолжительность: 01:34:30
Перевод: Профессиональный (полное дублирование)
Режиссер: Мaйкл Дж. Бaссетт
В ролях: Эделейд Клеменс, Кит Харингтон, Дебора Кара Ангер, Мартин Донован, Малкольм МакДауэлл, Кэрри-Энн Мосс, Шон Бин, Рада Митчелл, Роберто Кампанелла, Эрин Питт
Описание: Хизер терзается ночными кошмарами с одиннадцатилетнего возраста и вынуждена со своим отцом постоянно менять место жительства, скрываясь от таинственных сил. Накануне своего восемнадцатого дня рождения Хизер, вернувшись домой, обнаруживает, что её отец исчез. Единственное, что она нашла дома — нарисованный на стене оккультный символ с надписью «отправляйся в Сайлент Хилл».--Доп. информация: Рип с русского BD3D, соотношение сторон 16х9 ( без полос ).
Сравнение кадрирования BD3D Rus vs. BD3D US от Ash61

Сравнение

BD3D Rus.............................................BD3D US


--Формат 3D: OverUnder BDRip, Full
Видео: AVC, High@L5.0, 1920х2160, 23,976 кадра/сек, 19,7 Мбит/сек
Аудио: Rus, DTS, 6 каналов, 1510 Кбит/сек, 48,0 КГц
Аудио: Ukr, DTS, 6 каналов, 1510 Кбит/сек, 48,0 КГц
Аудио: Eng, DTS, 6 каналов, 1510 Кбит/сек, 48,0 КГц

Скриншоты




Media Info

Общее
Уникальный идентификатор : 182900068412853139145760301977392597905 (0x8999459887C68722AD8B85604A074B91)
Полное имя : E:\STEREO\Silеnt Нill_Rеvelation_1080p_Rip by Dag13.mkv
Формат : Matroska
Версия формата : Version 2
Размер файла : 16,3 Гбайт
Продолжительность : 1 ч. 34 м.
Общий поток : 24,8 Мбит/сек
Дата кодирования : UTC 2013-03-26 09:36:18
Программа кодирования : mkvmerge v3.4.0 ('Rapunzel') сборка от May 15 2010 09:38:20
Библиотека кодирования : libebml v0.8.0 + libmatroska v0.9.0
Видео
Идентификатор : 1
Формат : AVC
Формат/Информация : Advanced Video Codec
Профиль формата : High@L5.0
Параметр CABAC формата : Да
Параметр ReFrames формата : 4 кадра
Идентификатор кодека : V_MPEG4/ISO/AVC
Продолжительность : 1 ч. 34 м.
Битрейт : 19,7 Мбит/сек
Ширина : 1920 пикселей
Высота : 2160 пикселей
Соотношение сторон : 0,889
Частота кадров : 23,976 кадра/сек
Цветовое пространство : YUV
Субдискретизация насыщенности : 4:2:0
Битовая глубина : 8 бит
Тип развёртки : Прогрессивная
Бит/(Пиксели*Кадры) : 0.199
Размер потока : 13,0 Гбайт (80%)
Заголовок : Rip by Dag13
Библиотека кодирования : x264 core 120 r2145 748fe16
Настройки программы : cabac=1 / ref=4 / deblock=1:-3:-3 / analyse=0x3:0x113 / me=umh / subme=9 / psy=1 / psy_rd=1.00:0.00 / mixed_ref=1 / me_range=16 / chroma_me=1 / trellis=2 / 8x8dct=1 / cqm=0 / deadzone=21,11 / fast_pskip=1 / chroma_qp_offset=-2 / threads=9 / sliced_threads=0 / nr=0 / decimate=1 / interlaced=0 / bluray_compat=0 / constrained_intra=0 / bframes=6 / b_pyramid=2 / b_adapt=2 / b_bias=0 / direct=3 / weightb=1 / open_gop=0 / weightp=2 / keyint=250 / keyint_min=23 / scenecut=40 / intra_refresh=0 / rc_lookahead=60 / rc=crf / mbtree=1 / crf=18.0 / qcomp=0.60 / qpmin=1 / qpmax=69 / qpstep=4 / ip_ratio=1.40 / aq=1:1.00
Язык : English
Default : Нет
Forced : Нет
Аудио #1
Идентификатор : 2
Формат : DTS
Формат/Информация : Digital Theater Systems
Профиль формата : ES
Идентификатор кодека : A_DTS
Продолжительность : 1 ч. 34 м.
Вид битрейта : Постоянный
Битрейт : 1510 Кбит/сек
Каналы : 6 каналов
Расположение каналов : Front: L C R, Side: L R, LFE
Частота : 48,0 КГц
Битовая глубина : 16 бит
Метод сжатия : С потерями
Размер потока : 1021 Мбайт (6%)
Язык : Russian
Default : Да
Forced : Нет
Аудио #2
Идентификатор : 3
Формат : DTS
Формат/Информация : Digital Theater Systems
Идентификатор кодека : A_DTS
Продолжительность : 1 ч. 34 м.
Вид битрейта : Постоянный
Битрейт : 1510 Кбит/сек
Каналы : 6 каналов
Расположение каналов : Front: L C R, Side: L R, LFE
Частота : 48,0 КГц
Битовая глубина : 16 бит
Метод сжатия : С потерями
Размер потока : 1021 Мбайт (6%)
Язык : Ukrainian
Default : Нет
Forced : Нет
Аудио #3
Идентификатор : 4
Формат : DTS
Формат/Информация : Digital Theater Systems
Идентификатор кодека : A_DTS
Продолжительность : 1 ч. 34 м.
Вид битрейта : Постоянный
Битрейт : 1510 Кбит/сек
Каналы : 6 каналов
Расположение каналов : Front: L C R, Side: L R, LFE
Частота : 48,0 КГц
Битовая глубина : 24 бит
Метод сжатия : С потерями
Размер потока : 1021 Мбайт (6%)
Язык : English
Default : Нет
Forced : Нет
На встроенных ТВ-плейерах показывать НЕ будет!!!
Остальные раздачи этого фильма (2)
Благодарности релизеру (8)

Торрент:

Статус:

Размер:

Зарегистрирован   [ 2013-03-26 18:00 ]

проверено

16.34 GB

 
 Мнение о фильме (14)





отличный фильм
 

3 Д очень понравилось. Качество отличное спасибо.
 
noviy_bereg49@mail.ru Профиль 22-Май-2013 22:35

На один просмотр.
 

Сравнение кадрирования BD3D Rus vs. BD3D US
rus - обрезан с лева и с права.
us - обрезан верх и низ.
а что полной картинки нет???
 

Не понравился(
 

моё мнение
 

на любителя
 

ЗАРАНЕЕ БОЛЬШОЕ СПАСИБО!!!
 

Ожидал нааааааааааааааааамного большего.
Такое впечатление, че ету Хизер стремает от всего и она под действием постоянных галлюцинаций. Вопрос о ее вменяемости оставляет сомнения.
Работает закон Голливуда: второй фильм хуже, чем первый.
3D великолепное. Стоит смотреть только из-за него.
 

Дайте скорости!!!
 

Судя по отзывам фильм достойный. Посмотрим ))
 

ГОСПОДА, СЛЕТЕЛ ЖЕСТКИЙ ДИСК.ПОТЕРЯНЫ ВСЕ СКАЧКИ.ОБНОВЛЯЮ НОВЫЙ .СПАСИБО ЗА РАЗДАЧУ.
 

полная жесть!!! людям со слабым кишечником не рекомендую смотреть!!!!!!
 

Игра реально интересней))) вылеты есть, 3д качественное
 
Алексей "51" Профиль 01-Май-2014 23:15