Торренты   
 
 

 

Коралловый риф 3D: Подводный мир Египта / Adventure Coral Reef: Under the Sea of Egypt [2012, BDRip, half1080p, Anamorph OverUnder]

Рейтинг 3D:
31 голосов
8.7
Рейтинг фильма:
31 голосов
8.4
 
Вы должны быть авторизированы,
чтобы ставить оценки


Коралловый риф 3D: Подводный мир ЕгиптаAbenteuer Korallenriff: Die unterwasserwelt ÄgyptensAdventure Coral Reef: Under the Sea of Egypt- Год выпуска: 2012
Страна: Германия (3D-Media International)
Жанр: Документальный, Видовой
Продолжительность: 00:50:41
Перевод: Дубляж (BD3D)
Режиссер: Питер Лорд / Peter Lord
Описание: Подводный мир Красного моря в Египте не просто красив — он сказочно красив. Кораллы, гигантские скаты, миллионы рыб самой разнообразной раскраски, затонувшие корабли. Этот мир вас будет тянуть к себе с такой силой, что вы будите возвращаться туда снова и снова, чтобы испытать тот неописуемый восторг, радость первых открытий, ощущения умиротворенности и просто счастья. Совершите фантастическое путешествие не выходя из дома.-Релиз на DVD и Blu-Ray: 6 июня 2013 (22 мая 2013)
.
-Качество: BDRip (by Ash61)
Контейнер: MKV
Формат 3D: Anamorph OverUnder / Вертикальная анаморфная стереопара
Порядок ракурсов: левый ракурс первый-Видео: AVC / 23,976 fps / 1920х1080p / 17,3 Mbps
Аудио:
#1 - Русский / AC3 / 48 KHz / 5.1 ch / 640 Kbps (VO - BD3D)
#2 - Английский / AC3 / 48 KHz / 5.1 ch / 640 Kbps
#3 - Instrumental / AC3 / 48 KHz / 5.1 ch / 640 Kbps
Субтитры: Отсутствуют

MediaInfo

General
Unique ID : 192083138259821815786630681779348941434 (0x9081DDE5349350E09A5AD27CDDCFAA7A)
Complete name : G:\Downloads\AdventureCoralReef.UnderTheSeaOfEgypt(3D-halfOU)2012(Ash61).mkv
Format : Matroska
Format version : Version 2
File size : 6.95 GiB
Duration : 50mn 41s
Overall bit rate : 19.6 Mbps
Movie name : Коралловый риф 3D: Подводный мир Египта / Adventure Coral Reef: Under the Sea of Egypt (3D) 2012
Encoded date : UTC 2013-08-04 12:43:05
Writing application : mkvmerge v5.8.0 ('No Sleep / Pillow') built on Sep 2 2012 15:37:04
Writing library : libebml v1.2.3 + libmatroska v1.3.0
Video
ID : 1
Format : AVC
Format/Info : Advanced Video Codec
Format profile : High@L4.1
Format settings, CABAC : Yes
Format settings, ReFrames : 4 frames
Codec ID : V_MPEG4/ISO/AVC
Bit rate : 17.3 Mbps
Width : 1 920 pixels
Height : 1 080 pixels
Display aspect ratio : 16:9
Frame rate mode : Variable
Original frame rate : 23.976 fps
Color space : YUV
Chroma subsampling : 4:2:0
Bit depth : 8 bits
Scan type : Progressive
Title : BDRip by Ash61
Writing library : x264 core 129 r2245 bc13772
Encoding settings : cabac=1 / ref=4 / deblock=1:-1:-1 / analyse=0x3:0x113 / me=umh / subme=9 / psy=1 / psy_rd=1.00:0.15 / mixed_ref=1 / me_range=32 / chroma_me=1 / trellis=2 / 8x8dct=1 / cqm=0 / deadzone=21,11 / fast_pskip=1 / chroma_qp_offset=-3 / threads=12 / lookahead_threads=2 / sliced_threads=0 / nr=0 / decimate=1 / interlaced=0 / bluray_compat=0 / constrained_intra=0 / bframes=7 / b_pyramid=2 / b_adapt=2 / b_bias=0 / direct=3 / weightb=1 / open_gop=0 / weightp=2 / keyint=250 / keyint_min=23 / scenecut=40 / intra_refresh=0 / rc_lookahead=60 / rc=crf / mbtree=1 / crf=18.0 / qcomp=0.70 / qpmin=10 / qpmax=69 / qpstep=4 / vbv_maxrate=40000 / vbv_bufsize=30000 / crf_max=0.0 / nal_hrd=none / frame-packing=4 / ip_ratio=1.40 / aq=1:0.70
Language : German
Default : Yes
Forced : No
Audio #1
ID : 2
Format : AC-3
Format/Info : Audio Coding 3
Mode extension : CM (complete main)
Format settings, Endianness : Big
Codec ID : A_AC3
Duration : 50mn 41s
Bit rate mode : Constant
Bit rate : 640 Kbps
Channel(s) : 6 channels
Channel positions : Front: L C R, Side: L R, LFE
Sampling rate : 48.0 KHz
Bit depth : 16 bits
Compression mode : Lossy
Stream size : 232 MiB (3%)
Title : Дубляж - BD3D
Language : Russian
Default : Yes
Forced : No
Audio #2
ID : 3
Format : AC-3
Format/Info : Audio Coding 3
Mode extension : CM (complete main)
Format settings, Endianness : Big
Codec ID : A_AC3
Duration : 50mn 41s
Bit rate mode : Constant
Bit rate : 640 Kbps
Channel(s) : 6 channels
Channel positions : Front: L C R, Side: L R, LFE
Sampling rate : 48.0 KHz
Bit depth : 16 bits
Compression mode : Lossy
Stream size : 232 MiB (3%)
Language : English
Default : No
Forced : No
Audio #3
ID : 4
Format : AC-3
Format/Info : Audio Coding 3
Mode extension : CM (complete main)
Format settings, Endianness : Big
Codec ID : A_AC3
Duration : 50mn 41s
Bit rate mode : Constant
Bit rate : 640 Kbps
Channel(s) : 6 channels
Channel positions : Front: L C R, Side: L R, LFE
Sampling rate : 48.0 KHz
Bit depth : 16 bits
Compression mode : Lossy
Stream size : 232 MiB (3%)
Title : Instrumental
Default : No
Forced : No
Menu
00:00:00.000 : :1
00:13:11.249 : :2
00:25:26.775 : :3
00:38:22.342 : :4

Для оценки качества 3д - Анимированные скрины


















4.08.2013 - Релиз обновлён - добавлена русская дорога.
Желающие, скачайте заново торрент-файл.
Благодарности релизеру (75)

Торрент:

Статус:

Размер:

Зарегистрирован   [ 2013-08-04 17:23 ]

проверено

6.95 GB

 
 Мнение о фильме (8)





отличный фильм,отличное 3D,отличное качество всем очень советую посмотреть .Спасибо!!!
 

ash61, огромное спасибо.
Супер фильм.
 

Большое спасибо за труды. Фильм очень зашибательский! Кто не смотрел настоятельно рекомендую!!!
 

Спасибо 3D супер и фильм интересный!
 

Спасибо большое за ваши труды!!!!!!!!
 

спасибо!!!!!
 

Фильм красивый, интересный, смотрите все!
3D хорошее!
Благодарность за Ваши труды!
 
сергей2010infiniti Профиль 07-Ноя-2013 23:55

Фильм интересный и качественный. 3D за редкими сценами везде хорошее. Жаль что не увидел всех рыб, которых видел живьем на пляже Шарм-Эль-Шейха