Торренты   
 
 

 

Побег с планеты Земля 3Д / Escape from Planet Earth 3D (Каллэн Брункер) [2013 г., Anamorph SideBySide]

Рейтинг 3D:
8 голосов
8.4
Рейтинг фильма:
8 голосов
7.8
 
Вы должны быть авторизированы,
чтобы ставить оценки


Побег с планеты Земля 3Д / Escape from Planet Earth 3D
Год выпуска: 2013
Страна: США, Канада / Blue Yonder Films, Jon Shestack Productions, Protocol Pictures
Жанр: фантастика, комедия, приключения, семейный
Продолжительность: 01:29:15
Перевод: Профессиональный (полное дублирование)
Режиссер: Каллэн Брункер
В ролях: Брендан Фрейзер, Роб Кордри, Рики Джервэйс, Джонатан Морган Хейт, Джессика Альба, София Вергара, Пол Шеер, Джейсон Симпсон, Сара Джессика Паркер, Даг Абрахамс
Описание: На планете Бааб, в самом центре Вселенной, два брата делают всё возможное, чтобы защитить свою галактику. Они — полные противоположности. Если девиз Гарри — «сначала подумай, потом сделай», то отважный Скорч живет по закону «сила есть — ума не надо», что не мешает им слаженно работать. Но однажды они получают сигнал S.O.S. с опасной планеты…под названием Земля. Скорч, сломя голову, бросается на помощь, и, разумеется, влипает в неприятности. Только Гарри может вытащить его из «Зоны 51». Братья откроют множество головокружительных тайн, но смогут ли они сбежать с самой опасной планеты во Вселенной?
Формат 3D: Anamorph SideBySide
Порядок ракурсов: Параллельная пара

Скриншоты

Media Info

Escape from Planet Earth 3D (2013).mkv
Формат : Matroska
Версия формата : Version 2
Размер файла : 11,1 Гбайт
Продолжительность : 1 ч. 29 м.
Режим общего битрейта : Переменный
Общий поток : 17,8 Мбит/сек
Название фильма : ESCP_FRM_PLNT_ERTH_3D_BLUEBIRD.Title4.Bluray3DRip
Дата кодирования : UTC 2013-03-29 15:17:07
Библиотека кодирования : libebml v0.7.8 + libmatroska v0.8.1
Видео
Идентификатор : 1
Формат : AVC
Формат/Информация : Advanced Video Codec
Профиль формата : High@L4.1
Параметр CABAC формата : Да
Параметр ReFrames формата : 2 кадра
Идентификатор кодека : V_MPEG4/ISO/AVC
Продолжительность : 1 ч. 29 м.
Вид битрейта : Переменный
Битрейт : 17,0 Мбит/сек
Максимальный битрейт : 26,2 Мбит/сек
Ширина : 1920 пикселей
Высота : 1080 пикселей
Соотношение сторон : 16:9
Частота кадров : 23,976 кадра/сек
Цветовое пространство : YUV
Субдискретизация насыщенности : 4:2:0
Битовая глубина : 8 бит
Тип развёртки : Прогрессивная
Бит/(Пиксели*Кадры) : 0.342
Размер потока : 10,6 Гбайт (95%)
Default : Да
Forced : Нет
Аудио
Идентификатор : 2
Формат : AC-3
Формат/Информация : Audio Coding 3
Расширение режима : CM (complete main)
Параметр Endianness формата : Big
Идентификатор кодека : A_AC3
Продолжительность : 1 ч. 29 м.
Вид битрейта : Постоянный
Битрейт : 448 Кбит/сек
Каналы : 6 каналов
Расположение каналов : Front: L C R, Side: L R, LFE
Частота : 48,0 КГц
Битовая глубина : 16 бит
Метод сжатия : С потерями
Размер потока : 286 Мбайт (3%)
Язык : Russian
Default : Да
Forced : Нет
Благодарности релизеру (12)

Торрент:

Статус:

Размер:

Зарегистрирован   [ 2013-03-31 10:19 ]

поглощено

11.09 GB