Торренты   
 
 

 

Побег с планеты Земля / Escape from Planet Earth [2013, BDrip, half1080p, Anamorph SideBySide]

Рейтинг 3D:
68 голосов
7.7
Рейтинг фильма:
66 голосов
7.6
 
Вы должны быть авторизированы,
чтобы ставить оценки


Побег с планеты Земля / Escape from Planet Earth
Год выпуска: 2013
Страна: США, Канада / Blue Yonder Films, Jon Shestack Productions, Protocol Picture
Жанр: фантастика, комедия, приключения, семейный
Продолжительность: 01:29:16
Перевод: Профессиональный (полное дублирование)
Режиссер: Каллэн Брункер
Роли озвучивали:
Брендан Фрейзер, Роб Кордри, Рики Джервэйс, Джонатан Морган Хейт, Джессика Альба, София Вергара, Пол Шеер, Джейсон Симпсон, Сара Джессика Паркер, Даг Абрахамс
Описание:
На планете Бааб, в самом центре Вселенной, два брата делают всё возможное, чтобы защитить свою галактику. Они — полные противоположности. Если девиз Гарри — «сначала подумай, потом сделай», то отважный Скорч живет по закону «сила есть — ума не надо», что не мешает им слаженно работать. Но однажды они получают сигнал S.O.S. с опасной планеты…под названием Земля. Скорч, сломя голову, бросается на помощь, и, разумеется, влипает в неприятности. Только Гарри может вытащить его из «Зоны 51». Братья откроют множество головокружительных тайн, но смогут ли они сбежать с самой опасной планеты во Вселенной?
Качество: BDrip by Alexman©
Формат 3D: Anamorph SideBySide / Горизонтальная анаморфная стереопара
Порядок ракурсов: левый ракурс первый
Видео: MPEG4 AVC, 7 704 Kbps, 1920x1080, 23.976 кадр/с
Аудио: Русский дублированный перевод / AC3 / 48 KHz / 5.1 ch / 640 Kbps
Субтитры: отсутствуют.

MediaInfo

General
Unique ID : 185338171750594623522903313550532353908 (0x8B6ED55F06E31C388A45E8CB7F8F1F74)
Complete name : Escape from Planet Earth (2013) DUB hSbS 1080p by Alexman©.mkv
Format : Matroska
Format version : Version 4 / Version 2
File size : 5.31 GiB
Duration : 1h 29mn
Overall bit rate : 8 514 Kbps
Movie name : Escape from Planet Earth by Alexman©
Encoded date : UTC 2013-03-31 07:03:06
Writing application : mkvmerge v6.1.0 ('Old Devil') built on Mar 2 2013 14:32:37
Writing library : libebml v1.3.0 + libmatroska v1.4.0
Video
ID : 1
Format : AVC
Format/Info : Advanced Video Codec
Format profile : High@L4.1
Format settings, CABAC : Yes
Format settings, ReFrames : 4 frames
Codec ID : V_MPEG4/ISO/AVC
Duration : 1h 29mn
Bit rate : 7 704 Kbps
Width : 1 920 pixels
Height : 1 080 pixels
Display aspect ratio : 16:9
Frame rate mode : Constant
Frame rate : 23.976 fps
Color space : YUV
Chroma subsampling : 4:2:0
Bit depth : 8 bits
Scan type : Progressive
Bits/(Pixel*Frame) : 0.155
Stream size : 4.80 GiB (90%)
Title : Escape from Planet Earth
Writing library : x264 core 129 r2245 bc13772
Encoding settings : cabac=1 / ref=4 / deblock=1:-3:-3 / analyse=0x3:0x113 / me=umh / subme=9 / psy=1 / psy_rd=1.00:0.15 / mixed_ref=1 / me_range=32 / chroma_me=1 / trellis=2 / 8x8dct=1 / cqm=0 / deadzone=21,11 / fast_pskip=1 / chroma_qp_offset=-3 / threads=6 / lookahead_threads=1 / sliced_threads=0 / nr=0 / decimate=1 / interlaced=0 / bluray_compat=0 / constrained_intra=0 / bframes=4 / b_pyramid=2 / b_adapt=2 / b_bias=0 / direct=3 / weightb=1 / open_gop=0 / weightp=2 / keyint=250 / keyint_min=23 / scenecut=40 / intra_refresh=0 / rc_lookahead=60 / rc=crf / mbtree=1 / crf=17.0 / qcomp=0.60 / qpmin=0 / qpmax=69 / qpstep=4 / vbv_maxrate=40000 / vbv_bufsize=40000 / crf_max=0.0 / nal_hrd=none / ip_ratio=1.40 / aq=1:0.70
Language : English
Default : Yes
Forced : No
Audio
ID : 2
Format : AC-3
Format/Info : Audio Coding 3
Mode extension : CM (complete main)
Format settings, Endianness : Big
Codec ID : A_AC3
Duration : 1h 29mn
Bit rate mode : Constant
Bit rate : 640 Kbps
Channel(s) : 6 channels
Channel positions : Front: L C R, Side: L R, LFE
Sampling rate : 48.0 KHz
Bit depth : 16 bits
Compression mode : Lossy
Stream size : 409 MiB (8%)
Title : Русский дублированный
Language : Russian
Default : Yes
Forced : Yes

Скриншоты



Анимированные скриншоты для оценки 3Д-эффекта



Проверено на ТВ Samsung 40C7000 и Samsung 46D7000
Остальные раздачи этого фильма (4)
Благодарности релизеру (17)

Торрент:

Статус:

Размер:

Зарегистрирован   [ 2013-03-31 12:06 ]

проверено

5.31 GB

 
 Мнение о фильме (16)





Кто посмотрел, отпишитесь?Как 3D?
 

sergo437484, а по анимированным скринам не видно? вроде ничего такое 3Д, я, правда, только чуть-чуть глянул, чисто рип проверил, но 3Д точно присутствует :)
 

Судя по анимированным скринам, 3Д оч хорошее.
 

3d никакое. похоже на эмулятор 2D-3D
 

maxreybus, имейте совесть ! шутки шутками , а 3D на высоте !
 
ВАСИЛИЙ СОЛОМОН Профиль 01-Апр-2013 08:29

3D в мульте отличное!Есть пару вылетов даже !
 

Мульт Найс и 3D Гуд! Спасибо!!!
 

Мульт шикарен, вот ток под конец фильма пришлось сесть как по инструкции, картинка двоится с далека началась :(
 

Мульт не для детей от 0+ как написано в начале ибо клюква, предательства, теория заговоров не для малышей. Мульт одноразовый. Рип содержит какие раздвоения - даже если одним глазом смотреть или попросту отключить 3д - все равно во многих местах картинка двоится (телек лж) так что я не назову комфортным просмотр этой раздачи (других не видел).
 

Мультик очень яркий и красочный! 3D практически незаметное! Мультик сам по себе прикольный можно смотреть и детям и взрослым!
 

мне понравилось. и 3д на уровне
 

Детский епичский мульт.
Есть несколько ржачных моментов, но в целом твоему малому понравится.
 

Спасибо за раздачу! Мне мультик не понравился. 3Д нормальное.
 

Отличный мультик, всей семье понравился как ни банально это звучит :-)
Отлично прописанные характеры как главных, так и второстепенных персонажей.
Сюжет местами косячит (первопричина попадания инопланетян на Землю и иже с этим), но на это не обращаешь особо внимания потому что следишь за его (сюжетом) развитием.
3Дэ хорошее, вылетов как бы особо и нет, но глубина сделана ну очень правильно.
Рекомендую к просмотру, хотя, конечно надо понимать, что это мультик, а не серьезное кино :-)
 

Спасибо!!!
 

Надо посмотреть.Буду качать.Потом оценки вставлю.Спасибо)))