Торренты   
 
 

 

Побег с планеты Земля / Escape from Planet Earth [2013 г., BDrip, Anamorph OverUnder]

Рейтинг 3D:
68 голосов
7.7
Рейтинг фильма:
66 голосов
7.6
 
Вы должны быть авторизированы,
чтобы ставить оценки



Побег с планеты Земля
Escape from Planet Earth
«Земные секреты раскрыты чужими!»

Год выпуска: 2013
Страна: Канада, США (Blue Yonder Films, GRF Productions и др.)
Жанр: мультфильм, фантастика, комедия, приключения, семейный
Продолжительность: 01:29:15
Перевод: Профессиональный (дублированный)
Русские субтитры: нет
Режиссер: Кэллан Брукнер
Сценарий: Боб Барлен, Кэллан Брукнер, Тони Лич
Продюсер: Люк Кэрролл, Катрин Уиндер, Филлип Глассер
Композитор: Аарон Зигман
Художник: Бэрри Е. Джексон, Матиас Лечнер
Оператор: Мэттью А. Уорд
Монтаж: Мэтт Лэндон, Скотт Уинлоу
Роли озвучивали:
Брендан Фрейзер, Роб Кордри, Рики Джервэйс, Джонатан Морган Хейт, Джессика Альба, София Вергара, Пол Шеер, Джейсон Симпсон, Сара Джессика Паркер, Даг Абрахамс и др.
Роли дублировали:
Иван Жарков, Евгений Стычкин и др.
Описание:
На планете Бааб, в самом центре Вселенной, два брата делают всё возможное, чтобы защитить свою галактику. Они — полные противоположности. Если девиз Гарри — «сначала подумай, потом сделай», то отважный Скорч живет по закону «сила есть — ума не надо», что не мешает им слаженно работать. Но однажды они получают сигнал S.O.S. с опасной планеты…под названием Земля. Скорч, сломя голову, бросается на помощь, и, разумеется, влипает в неприятности. Только Гарри может вытащить его из «Зоны 51». Братья откроют множество головокружительных тайн, но смогут ли они сбежать с самой опасной планеты во Вселенной?

Знаете ли вы, что...:

  • Всякий раз, когда две фамилии героев в фильме произносят подряд, они совпадают с именами известных режиссеров, например: «Питер! Джексон! Задержать его!» или «Джеймс! Кэмерон! Не дайте ему уйти!».

Техн. детали съёмки

  • Формат изображения: 2.35 : 1
  • Формат копии: 35 mm (anamorphic) (Kodak Vision 2383)
    D-Cinema (also 3-D version)
  • Формат съёмок: Digital
  • Изображение: цветное
Релиз группы:

премьера (мир) 14 февраля 2013
премьера (РФ) 28 февраля 2013, «Люксор» 3D
релиз на Blu-Ray 2 апреля 2013, «Флагман-Трейд»
Бюджет: $40 000 000
Сборы в мире: $56 433 131


Проверено на встроенном плейере ТВ LG 42LW4500
--
Качество: BDrip by StarStranger
Контейнер: MKV
Формат 3D: Anamorph OverUnder / Вертикальная анаморфная стереопара
Порядок ракурсов: левый ракурс первый
Видео кодек: x264
Аудио кодек: AC3
Видео: AVC / 23,976 fps / 1920х1080p / 6935 Kbps
Аудио: Русский / AC3 / 48 KHz / 5.1 ch / 640 Kbps
Субтитры: отсутствуют

MediaInfo

Код:
Общее
Уникальный идентификатор                 : 250608476382695335856973588813565753107 (0xBC896FD890A2E5A9B3D9D1756EA17713)
Полное имя                               : H:\Source\EscapeFromPlanetEarth.3D.2013.BD3DRip.Half.OU.x264.AC3.3D-RuGroup.mkv
Формат                                   : Matroska
Версия формата                           : Version 2
Размер файла                             : 4,82 Гбайт
Продолжительность                        : 1 ч. 29 м.
Общий поток                              : 7729 Кбит/сек
Название фильма                          : Escape from Planet Earth 3D (2013 )release 3D-RuGroup rip by StarStranger aka itsamna
Дата кодирования                         : UTC 2013-03-31 10:30:09
Программа кодирования                    : mkvmerge v3.4.0 ('Rapunzel') сборка от May 15 2010 09:38:20
Библиотека кодирования                   : libebml v0.8.0 + libmatroska v0.9.0
Видео
Идентификатор                            : 1
Формат                                   : AVC
Формат/Информация                        : Advanced Video Codec
Профиль формата                          : High@L4.1
Параметр CABAC формата                   : Да
Параметр ReFrames формата                : 4 кадра
Идентификатор кодека                     : V_MPEG4/ISO/AVC
Продолжительность                        : 1 ч. 29 м.
Битрейт                                  : 6935 Кбит/сек
Ширина                                   : 1920 пикселей
Высота                                   : 1080 пикселей
Соотношение сторон                       : 16:9
Режим частоты кадров                     : Постоянный
Частота кадров                           : 23,976 кадра/сек
Цветовое пространство                    : YUV
Субдискретизация насыщенности            : 4:2:0
Битовая глубина                          : 8 бит
Тип развёртки                            : Прогрессивная
Бит/(Пиксели*Кадры)                      : 0.139
Размер потока                            : 4,32 Гбайт (90%)
Заголовок                                : rip by StarStranger aka itsamna
Библиотека кодирования                   : x264 core 130 r2273 b3065e6
Настройки программы                      : cabac=1 / ref=4 / deblock=1:-1:-1 / analyse=0x3:0x133 / me=umh / subme=10 / psy=1 / psy_rd=0.80:0.00 / mixed_ref=1 / me_range=32 / chroma_me=1 / trellis=2 / 8x8dct=1 / cqm=0 / deadzone=21,11 / fast_pskip=0 / chroma_qp_offset=-2 / threads=3 / lookahead_threads=1 / sliced_threads=0 / nr=0 / decimate=1 / interlaced=0 / bluray_compat=0 / constrained_intra=0 / bframes=7 / b_pyramid=2 / b_adapt=2 / b_bias=0 / direct=3 / weightb=1 / open_gop=0 / weightp=2 / keyint=250 / keyint_min=23 / scenecut=40 / intra_refresh=0 / rc_lookahead=60 / rc=crf / mbtree=1 / crf=17.0 / qcomp=0.70 / qpmin=0 / qpmax=69 / qpstep=4 / vbv_maxrate=40000 / vbv_bufsize=30000 / crf_max=0.0 / nal_hrd=none / ip_ratio=1.40 / aq=1:0.90
Default                                  : Нет
Forced                                   : Нет
Аудио
Идентификатор                            : 2
Формат                                   : AC-3
Формат/Информация                        : Audio Coding 3
Расширение режима                        : CM (complete main)
Параметр Endianness формата              : Big
Идентификатор кодека                     : A_AC3
Продолжительность                        : 1 ч. 29 м.
Вид битрейта                             : Постоянный
Битрейт                                  : 640 Кбит/сек
Каналы                                   : 6 каналов
Расположение каналов                     : Front: L C R, Side: L R, LFE
Частота                                  : 48,0 КГц
Битовая глубина                          : 16 бит
Метод сжатия                             : С потерями
Размер потока                            : 409 Мбайт (8%)
Заголовок                                : Dub
Язык                                     : Russian
Default                                  : Нет
Forced                                   : Нет
Меню
00:00:00.000                             : :01
00:08:21.584                             : :02
00:15:30.888                             : :03
00:25:19.810                             : :04
00:32:23.275                             : :05
00:40:41.522                             : :06
00:49:52.573                             : :07
00:57:21.980                             : :08
01:06:59.015                             : :09
01:13:39.165                             : :10
01:21:54.243                             : :11

Скриншоты

Остальные раздачи этого фильма (4)
Благодарности релизеру (24)

Торрент:

Статус:

Размер:

Зарегистрирован   [ 2013-03-31 14:49 ]

проверено

4.82 GB

 
 Мнение о фильме (16)





Кто посмотрел, отпишитесь?Как 3D?
 

sergo437484, а по анимированным скринам не видно? вроде ничего такое 3Д, я, правда, только чуть-чуть глянул, чисто рип проверил, но 3Д точно присутствует :)
 

Судя по анимированным скринам, 3Д оч хорошее.
 

3d никакое. похоже на эмулятор 2D-3D
 

maxreybus, имейте совесть ! шутки шутками , а 3D на высоте !
 
ВАСИЛИЙ СОЛОМОН Профиль 01-Апр-2013 08:29

3D в мульте отличное!Есть пару вылетов даже !
 

Мульт Найс и 3D Гуд! Спасибо!!!
 

Мульт шикарен, вот ток под конец фильма пришлось сесть как по инструкции, картинка двоится с далека началась :(
 

Мульт не для детей от 0+ как написано в начале ибо клюква, предательства, теория заговоров не для малышей. Мульт одноразовый. Рип содержит какие раздвоения - даже если одним глазом смотреть или попросту отключить 3д - все равно во многих местах картинка двоится (телек лж) так что я не назову комфортным просмотр этой раздачи (других не видел).
 

Мультик очень яркий и красочный! 3D практически незаметное! Мультик сам по себе прикольный можно смотреть и детям и взрослым!
 

мне понравилось. и 3д на уровне
 

Детский епичский мульт.
Есть несколько ржачных моментов, но в целом твоему малому понравится.
 

Спасибо за раздачу! Мне мультик не понравился. 3Д нормальное.
 

Отличный мультик, всей семье понравился как ни банально это звучит :-)
Отлично прописанные характеры как главных, так и второстепенных персонажей.
Сюжет местами косячит (первопричина попадания инопланетян на Землю и иже с этим), но на это не обращаешь особо внимания потому что следишь за его (сюжетом) развитием.
3Дэ хорошее, вылетов как бы особо и нет, но глубина сделана ну очень правильно.
Рекомендую к просмотру, хотя, конечно надо понимать, что это мультик, а не серьезное кино :-)
 

Спасибо!!!
 

Надо посмотреть.Буду качать.Потом оценки вставлю.Спасибо)))