Торренты   
 
 

 

Побег с планеты Земля в 3Д / Escape from Planet Earth 3D (Кэллан Брукнер / Callan Brunker) [2013, Мультфильм, Фантастика, Комедия, Приключения, Семе, BDrip, 1080p]Full OverUnder / Вертикальная стереопара

Рейтинг 3D:
68 голосов
7.7
Рейтинг фильма:
66 голосов
7.6
 
Вы должны быть авторизированы,
чтобы ставить оценки


Побег с планеты Земля / Escape from Planet Earth
Год выпуска: 2013
Страна: США, Канада
Студия: The Weinstein Company, Kaleidoscope TWC, Rainmaker
Жанр: Мультфильм, Фантастика, Комедия, Приключения, Семейный
Продолжительность: 01:29:16
Перевод: Профессиональный (дублированный)
Русские субтитры: нет
Режиссер на русском: Кэллан Брукнер
Режиссер на английском: Callan Brunker
Роли озвучивали: Брендан Фрейзер, Роб Кордри, Рики Джервэйс, Джонатан Морган Хейт, Джессика Альба, София Вергара, Пол Шеер, Джейсон Симпсон, Сара Джессика Паркер, Даг Абрахамс
Описание: На планете Бааб, в самом центре Вселенной, два брата делают всё возможное, чтобы защитить свою галактику. Они — полные противоположности. Если девиз Гарри — «сначала подумай, потом сделай», то отважный Скорч живет по закону «сила есть — ума не надо», что не мешает им слаженно работать. Но однажды они получают сигнал S.O.S. с опасной планеты…под названием Земля. Скорч, сломя голову, бросается на помощь, и, разумеется, влипает в неприятности. Только Гарри может вытащить его из «Зоны 51». Братья откроют множество головокружительных тайн, но смогут ли они сбежать с самой опасной планеты во Вселенной?
Качество: BDrip
Контейнер: MKV
Формат 3D: OverUnder / Вертикальная стереопара
Порядок ракурсов: левый ракурс первый
Видео кодек: x264
Аудио кодек: DTS
Видео: AVC / High@L5.0 / 23,976 fps / 1920х1640 / 11,5 Мбит/сек
Аудио: Русский / DTS / 48 KHz / 5.1 ch / 1510 Кбит/сек
Релиз группы: ВНИМАНИЕ ! На встроенных ТВ-плейерах работать не будет!!!
Железные плееры на которых воспроизводятся полные стереопары:Popcorn C-200 , Dune HD Smart D1 , Dune HD DUO , Dune HD Smart H1 , Dune HD Smart B1 , Dune HD Max , Dune HD TV-303D , Dune HD Base 3D

MediaInfo

Общее
Уникальный идентификатор : 216867146270527178788994646000854440082 (0xA32717D51D59B914A5AF3B3A40411892)
Полное имя : E:\закачки\Escape from Planet Earth.Rip by SeRoGa00.mkv
Формат : Matroska
Версия формата : Version 2
Размер файла : 8,26 Гбайт
Продолжительность : 1 ч. 29 м.
Общий поток : 13,3 Мбит/сек
Дата кодирования : UTC 2013-03-31 13:22:33
Программа кодирования : mkvmerge v3.4.0 ('Rapunzel') сборка от May 15 2010 09:38:20
Библиотека кодирования : libebml v0.8.0 + libmatroska v0.9.0
Видео
Идентификатор : 1
Формат : AVC
Формат/Информация : Advanced Video Codec
Профиль формата : High@L5.0
Параметр CABAC формата : Да
Параметр ReFrames формата : 4 кадра
Идентификатор кодека : V_MPEG4/ISO/AVC
Продолжительность : 1 ч. 29 м.
Битрейт : 11,5 Мбит/сек
Ширина : 1920 пикселей
Высота : 1640 пикселей
Соотношение сторон : 1,171
Частота кадров : 23,976 кадра/сек
Цветовое пространство : YUV
Субдискретизация насыщенности : 4:2:0
Битовая глубина : 8 бит
Тип развёртки : Прогрессивная
Бит/(Пиксели*Кадры) : 0.152
Размер потока : 7,16 Гбайт (87%)
Заголовок : Rip by SeRoGa00
Библиотека кодирования : x264 core 128 r2216kMod 198a7ea
Настройки программы : cabac=1 / ref=4 / deblock=1:-3:-3 / analyse=0x3:0x113 / me=umh / subme=9 / psy=1 / fade_compensate=0.00 / psy_rd=1.00:0.15 / mixed_ref=1 / me_range=16 / chroma_me=1 / trellis=2 / 8x8dct=1 / cqm=0 / deadzone=21,11 / fast_pskip=1 / chroma_qp_offset=-3 / threads=9 / lookahead_threads=1 / sliced_threads=0 / nr=0 / decimate=1 / interlaced=0 / bluray_compat=0 / constrained_intra=0 / bframes=6 / b_pyramid=2 / b_adapt=2 / b_bias=0 / direct=3 / weightb=1 / open_gop=0 / weightp=2 / keyint=250 / keyint_min=23 / scenecut=40 / intra_refresh=0 / rc_lookahead=60 / rc=crf / mbtree=1 / crf=18.0000 / qcomp=0.60 / qpmin=10 / qpmax=69 / qpstep=4 / vbv_maxrate=40000 / vbv_bufsize=40000 / crf_max=0.0 / nal_hrd=none / ip_ratio=1.40 / aq=1:1.00
Язык : English
Аудио
Идентификатор : 2
Формат : DTS
Формат/Информация : Digital Theater Systems
Идентификатор кодека : A_DTS
Продолжительность : 1 ч. 29 м.
Вид битрейта : Постоянный
Битрейт : 1510 Кбит/сек
Каналы : 6 каналов
Расположение каналов : Front: L C R, Side: L R, LFE
Частота : 48,0 КГц
Битовая глубина : 16 бит
Метод сжатия : С потерями
Размер потока : 964 Мбайт (11%)
Язык : Russian

Скриншоты


Остальные раздачи этого фильма (4)
Благодарности релизеру (5)

Торрент:

Статус:

Размер:

Зарегистрирован   [ 2013-03-31 17:42 ]

проверено

8.26 GB

 
 Мнение о фильме (16)





Кто посмотрел, отпишитесь?Как 3D?
 

sergo437484, а по анимированным скринам не видно? вроде ничего такое 3Д, я, правда, только чуть-чуть глянул, чисто рип проверил, но 3Д точно присутствует :)
 

Судя по анимированным скринам, 3Д оч хорошее.
 

3d никакое. похоже на эмулятор 2D-3D
 

maxreybus, имейте совесть ! шутки шутками , а 3D на высоте !
 
ВАСИЛИЙ СОЛОМОН Профиль 01-Апр-2013 08:29

3D в мульте отличное!Есть пару вылетов даже !
 

Мульт Найс и 3D Гуд! Спасибо!!!
 

Мульт шикарен, вот ток под конец фильма пришлось сесть как по инструкции, картинка двоится с далека началась :(
 

Мульт не для детей от 0+ как написано в начале ибо клюква, предательства, теория заговоров не для малышей. Мульт одноразовый. Рип содержит какие раздвоения - даже если одним глазом смотреть или попросту отключить 3д - все равно во многих местах картинка двоится (телек лж) так что я не назову комфортным просмотр этой раздачи (других не видел).
 

Мультик очень яркий и красочный! 3D практически незаметное! Мультик сам по себе прикольный можно смотреть и детям и взрослым!
 

мне понравилось. и 3д на уровне
 

Детский епичский мульт.
Есть несколько ржачных моментов, но в целом твоему малому понравится.
 

Спасибо за раздачу! Мне мультик не понравился. 3Д нормальное.
 

Отличный мультик, всей семье понравился как ни банально это звучит :-)
Отлично прописанные характеры как главных, так и второстепенных персонажей.
Сюжет местами косячит (первопричина попадания инопланетян на Землю и иже с этим), но на это не обращаешь особо внимания потому что следишь за его (сюжетом) развитием.
3Дэ хорошее, вылетов как бы особо и нет, но глубина сделана ну очень правильно.
Рекомендую к просмотру, хотя, конечно надо понимать, что это мультик, а не серьезное кино :-)
 

Спасибо!!!
 

Надо посмотреть.Буду качать.Потом оценки вставлю.Спасибо)))