Торренты   
 
 

 

Стартрек: Возмездие в 3Д, Трейлер №2 / Star Trek Into Darkness in 3D, Trailer №2 [2013 г., DCPrip, Anamorph OverUnder]

Рейтинг 3D:
13 голосов
8.0
Рейтинг фильма:
11 голосов
8.4
 
Вы должны быть авторизированы,
чтобы ставить оценки


Стартрек: Возмездие в 3Д, Трейлер №2
Star Trek Into Darkness in 3D, Trailer №2
--Год выпуска: 2013
Страна: США
Жанр: фантастика, боевик, приключения, ...
Продолжительность: 00:02:18--Описание: Вернувшись на Землю, команда корабля «Энтерпрайз» обнаруживает, что деятельность и принципы их организации подорваны изнутри. Флот скован необъяснимым ужасом и бездействует, пока мир все глубже погружается в бездну.
Капитан Кирк берет на себя руководство операцией по поимке злодея, ответственного за этот хаос и способного уничтожить все человечество.
В запутанной игре не на жизнь, а на смерть, любовь и дружба будут принесены в жертву ради единственного, что осталось у Кирка — его команды.--Доп. инфо: Первый трейлер находится >>>ЗДЕСЬ<<<--Формат 3d: Anamorph OverUnder (левый ракурс верхний)
Качество: DCPrip
Контейнер: mkv
Видео: AVC / 1920х1080 / 24 fps / 11.3 Mbps
Аудио: Русский / AC3 / 6 ch / 448 Kbps / 48 KHz--

MediaInfo&#58;

Код:
General
Unique ID                      : 249795519741150238150344183684606034197 (0xBBECDDFD2BA6923085B26C837DC58115)
Complete name                  : L:\_3D\3D-Trailers\_2013\Trailer2_StarTrekIntoDarkness(3D)HalfOU-abq.mkv
Format                         : Matroska
Format version                 : Version 2
File size                      : 196 MiB
Duration                       : 2mn 17s
Overall bit rate               : 12.0 Mbps
Encoded date                   : UTC 2013-04-01 18:19:04
Writing application            : mkvmerge v4.0.0 ('The Stars were mine') сборка от Jun  6 2010 16:18:42
Writing library                : libebml v1.0.0 + libmatroska v1.0.0
Video
ID                             : 1
Format                         : AVC
Format/Info                    : Advanced Video Codec
Format profile                 : High@L4.1
Format settings, CABAC         : Yes
Format settings, ReFrames      : 4 frames
Codec ID                       : V_MPEG4/ISO/AVC
Duration                       : 2mn 17s
Bit rate                       : 11.3 Mbps
Width                          : 1 920 pixels
Height                         : 1 080 pixels
Display aspect ratio           : 16:9
Frame rate mode                : Constant
Frame rate                     : 24.000 fps
Color space                    : YUV
Chroma subsampling             : 4:2:0
Bit depth                      : 8 bits
Scan type                      : Progressive
Bits/(Pixel*Frame)             : 0.226
Stream size                    : 185 MiB (94%)
Writing library                : x264 core 116 r2074 2641b9e
Encoding settings              : cabac=1 / ref=4 / deblock=1:-3:-3 / analyse=0x3:0x113 / me=umh / subme=9 / psy=1 / psy_rd=1.00:0.15 / mixed_ref=1 / me_range=16 / chroma_me=1 / trellis=2 / 8x8dct=1 / cqm=0 / deadzone=21,11 / fast_pskip=1 / chroma_qp_offset=-3 / threads=6 / sliced_threads=0 / nr=0 / decimate=1 / interlaced=0 / bluray_compat=0 / constrained_intra=0 / bframes=6 / b_pyramid=2 / b_adapt=2 / b_bias=0 / direct=3 / weightb=1 / open_gop=0 / weightp=2 / keyint=240 / keyint_min=24 / scenecut=40 / intra_refresh=0 / rc_lookahead=60 / rc=crf / mbtree=1 / crf=18.0 / qcomp=0.60 / qpmin=0 / qpmax=69 / qpstep=4 / vbv_maxrate=40000 / vbv_bufsize=40000 / crf_max=0.0 / nal_hrd=none / frame-packing=4 / ip_ratio=1.40 / aq=1:0.70
Language                       : English
Default                        : No
Forced                         : No
Audio
ID                             : 2
Format                         : AC-3
Format/Info                    : Audio Coding 3
Mode extension                 : CM (complete main)
Format settings, Endianness    : Big
Codec ID                       : A_AC3
Duration                       : 2mn 17s
Bit rate mode                  : Constant
Bit rate                       : 448 Kbps
Channel(s)                     : 6 channels
Channel positions              : Front: L C R, Side: L R, LFE
Sampling rate                  : 48.0 KHz
Bit depth                      : 16 bits
Compression mode               : Lossy
Stream size                    : 7.36 MiB (4%)
Language                       : Russian
Default                        : Yes
Forced                         : No

Скриншоты

Благодарности релизеру (16)

Торрент:

Статус:

Размер:

Зарегистрирован   [ 2013-04-04 20:03 ]

проверено

196 MB

 
 Мнение о фильме (8)





Ждёмс
 

Шикарные эффекты!
 

объём и глубина - отлично, а вылеты - как в мстителях, или Гнев титанов - не долетают. Но это трейлер, что в фильме - посмотрим...
 

Глубина, объём на уровне, но стерео раскрывается в более спокойных сценах. Трейлер же динамичен. Хотя по графике можно судить о проделанной работе. Поживём - увидим из чего выжали этот трейлер.
 

Голимый фильм какой то , бегают , стреляют, персонажи не раскрыты (кто такие , откуда ?)
 

Snooker,
Голимый фильм какой то , бегают , стреляют, персонажи не раскрыты (кто такие , откуда ?)
это трейлер, фасепальм...
за 2 минуты тебе никто вселенную стартрека освещать не будет.
ты сам не менее голимый, кто такой? откуда? кого на раёне знаешь?
 

Голимый фильм какой то , бегают , стреляют, персонажи не раскрыты (кто такие , откуда ?)
Ха-ха ну расмешил человек.
 

vovan8, я фильм уже полностью посморел , и остаюсь при том же недовольном мнении.
open_source, какая еще вселенная ? 2 часа беготни и диалогов :(