Торренты   
 
 

 

Коралина в Стране Кошмаров / Coraline [2009, BDrip, half1080p, Anamorph SideBySide]

Рейтинг 3D:
24 голосов
7.9
Рейтинг фильма:
23 голосов
8.1
 
Вы должны быть авторизированы,
чтобы ставить оценки


Коралина в Стране Кошмаров / Coraline
Год выпуска: 2009
Страна: США (Laika Entertainment, Pandemonium)
Жанр: Мультфильм, Фэнтези, Приключения, Семейный
Продолжительность: 01:40:34
Перевод: Профессиональный (дублированный) Русский и Украинский
Субтитры: Русские форсированные/полные, украинские форсированные/полные
Режиссер: Генри Селик
Роли озвучивали:
Дакота Фаннинг, Тери Хэтчер, Дженнифер Сoндерс, Доун Френч, Кит Дэвид, Джон Хуткман, Роберт Бэйли мл., Иэн МакШейн, Аанха Нил, Джордж Селик
Роли дублировали:
Анна Штукатурова, Владимир Зайцев, Елена Соловьева, Елена Бушуева, Людмила Гнилова и др.
Описание: Коралина, маленькая девочка, попадает в другой мир, скрытый за секретной дверцей. Этот мир — ее альтернативная жизнь, которая не перестает ее радовать, все здесь хорошо, но только до поры до времени. Однажды она понимает, что ее настоящим родителям за ее проделки угрожает смертельная опасность. Коралине придется найти выход из мира, наполненного призраками, в реальную жизнь…
Качество: BDrip by Alexman©
Формат 3D: Anamorph SideBySide / Горизонтальная анаморфная стереопара
Порядок ракурсов: левый ракурс первый
Видео: AVC, High@L4.1, 1920x1080, 23.976 fps, 8 9 275 Kbps
Аудио:
№1 - Русский дублированный перевод / AC3 / 48 KHz / 5.1 ch / 448 Kbps
№2 - Украинский дублированный перевод / AC3 / 48 KHz / 5.1 ch / 384 Kbps
№2 - Английский оригинальный / AC3 / 48 KHz / 5.1 ch / 640 Kbps

MediaInfo

General
Unique ID : 194281585987779386510590745690894834956 (0x922945BCA439123BBBDDE4A63BD91D0C)
Complete name : Coraline [Коралина в Стране Кошмаров] (2009) DUB hSbS 1080p by Alexman©.mkv
Format : Matroska
Format version : Version 4 / Version 2
File size : 7.70 GiB
Duration : 1h 40mn
Overall bit rate : 11.0 Mbps
Encoded date : UTC 2013-04-08 09:53:30
Writing application : mkvmerge v6.1.0 ('Old Devil') built on Mar 2 2013 14:32:37
Writing library : libebml v1.3.0 + libmatroska v1.4.0
Video
ID : 1
Format : AVC
Format/Info : Advanced Video Codec
Format profile : High@L4.1
Format settings, CABAC : Yes
Format settings, ReFrames : 4 frames
Codec ID : V_MPEG4/ISO/AVC
Duration : 1h 40mn
Bit rate : 9 275 Kbps
Width : 1 920 pixels
Height : 1 080 pixels
Display aspect ratio : 16:9
Frame rate mode : Constant
Frame rate : 23.976 fps
Color space : YUV
Chroma subsampling : 4:2:0
Bit depth : 8 bits
Scan type : Progressive
Bits/(Pixel*Frame) : 0.187
Stream size : 6.52 GiB (85%)
Writing library : x264 core 129 r2245 bc13772
Encoding settings : cabac=1 / ref=4 / deblock=1:-3:-3 / analyse=0x3:0x113 / me=umh / subme=9 / psy=1 / psy_rd=1.00:0.15 / mixed_ref=1 / me_range=32 / chroma_me=1 / trellis=2 / 8x8dct=1 / cqm=0 / deadzone=21,11 / fast_pskip=1 / chroma_qp_offset=-3 / threads=10 / lookahead_threads=1 / sliced_threads=0 / nr=0 / decimate=1 / interlaced=0 / bluray_compat=0 / constrained_intra=0 / bframes=4 / b_pyramid=2 / b_adapt=2 / b_bias=0 / direct=3 / weightb=1 / open_gop=0 / weightp=2 / keyint=250 / keyint_min=23 / scenecut=40 / intra_refresh=0 / rc_lookahead=60 / rc=crf / mbtree=1 / crf=17.0 / qcomp=0.60 / qpmin=0 / qpmax=69 / qpstep=4 / vbv_maxrate=40000 / vbv_bufsize=40000 / crf_max=0.0 / nal_hrd=none / ip_ratio=1.40 / aq=1:0.70
Language : English
Default : Yes
Forced : No
Audio #1
ID : 2
Format : AC-3
Format/Info : Audio Coding 3
Mode extension : CM (complete main)
Format settings, Endianness : Big
Codec ID : A_AC3
Duration : 1h 40mn
Bit rate mode : Constant
Bit rate : 448 Kbps
Channel(s) : 6 channels
Channel positions : Front: L C R, Side: L R, LFE
Sampling rate : 48.0 KHz
Bit depth : 16 bits
Compression mode : Lossy
Stream size : 322 MiB (4%)
Title : Русский дублированный
Language : Russian
Default : Yes
Forced : Yes
Audio #2
ID : 3
Format : AC-3
Format/Info : Audio Coding 3
Mode extension : CM (complete main)
Format settings, Endianness : Big
Codec ID : A_AC3
Duration : 1h 40mn
Bit rate mode : Constant
Bit rate : 384 Kbps
Channel(s) : 6 channels
Channel positions : Front: L C R, Side: L R, LFE
Sampling rate : 48.0 KHz
Bit depth : 16 bits
Compression mode : Lossy
Stream size : 276 MiB (4%)
Title : Украинский дублированный
Language : Ukrainian
Default : No
Forced : No
Audio #3
ID : 4
Format : AC-3
Format/Info : Audio Coding 3
Mode extension : CM (complete main)
Format settings, Endianness : Big
Codec ID : A_AC3
Duration : 1h 40mn
Bit rate mode : Constant
Bit rate : 640 Kbps
Channel(s) : 6 channels
Channel positions : Front: L C R, Side: L R, LFE
Sampling rate : 48.0 KHz
Bit depth : 16 bits
Compression mode : Lossy
Stream size : 460 MiB (6%)
Title : English original
Language : English
Default : No
Forced : No
Text #1
ID : 5
Format : UTF-8
Codec ID : S_TEXT/UTF8
Codec ID/Info : UTF-8 Plain Text
Title : Русские форсированные
Language : Russian
Default : Yes
Forced : Yes
Text #2
ID : 6
Format : UTF-8
Codec ID : S_TEXT/UTF8
Codec ID/Info : UTF-8 Plain Text
Title : Русские полные
Language : Russian
Default : No
Forced : No
Text #3
ID : 7
Format : UTF-8
Codec ID : S_TEXT/UTF8
Codec ID/Info : UTF-8 Plain Text
Title : Украинские форсированные
Language : Ukrainian
Default : No
Forced : No
Text #4
ID : 8
Format : UTF-8
Codec ID : S_TEXT/UTF8
Codec ID/Info : UTF-8 Plain Text
Title : Украинские полные
Language : Ukrainian
Default : No
Forced : No

Скриншоты



Анимированные скриншоты для оценки 3Д-эффекта



Проверено на ТВ Samsung 40C7000, Samsung 46D7000 и Philips 42PFL7606H
Остальные раздачи этого фильма (4)
Благодарности релизеру (6)

Торрент:

Статус:

Размер:

Зарегистрирован   [ 2013-04-08 16:32 ]

проверено

7.7 GB

 
 Мнение о фильме (6)





Спасибо,сказка ложь да в ней намек малой девочке урок, оочень красочный мультик
 

Смотрели с удовольствием.
Интересная фантазия у Севелика.
Очень интересно, особенно ее сад.
 

Фильм наверное понравится любителям японского мульттворчества. Слишком мрачно и бредово. Детям смотреть лично я бы не дал, мульт скорее для родителей, которым явно тыкают проблемами взаимоотношений с детьми. Несмотря на старания мультипликаторов и неплохое 3Д с некоторым количеством вылетов, фильм одноразовый - пересматривать не хочется.
 

Лучшее за последние несколько лет. Смотрели с женой раз пять.
 

Мульт очень понравился.И 3D тоже очень не полохое.
 

Спасибо за проекрасный релиз!!! Дети да и мы с удовольствием посмотрели!!!