Торренты   
 
 


Всемирное Природное Наследие: Гавайи / World Natural Heritage: Hawaii [2012 г., BDrip, Anamorph OverUnder]

Рейтинг 3D:
7 голосов
6.2
Рейтинг фильма:
6 голосов
5.6
 
Вы должны быть авторизированы,
чтобы ставить оценки


Всемирное Природное Наследие: Гавайи
World Natural Heritage: Hawaii
Год выпуска: 2012
Страна: Германия | KSM
Жанр: документальный
Продолжительность: 00:53:17
Перевод: Отсутствует
Описание: Фильм о природе Гавайских островов.Релиз группы:

Проверено на встроенном плейере ТВ LG 42LW4500
Формат 3D: Anamorph OverUnder
Видео: AVC / 23,976 fps / 1920х1080p / 17,6 Мbps
Аудио: Английский / AC3 / 48 KHz / 5.1 ch / 640 Kbps

Скриншоты

Media Info

Общее
Уникальный идентификатор : 232308723460290443942867383376630042760 (0xAEC5085E12EEF5D69D39BCCC12F4D088)
Полное имя : H:\WorldNaturalHeritage.Hawaii.3D.2012.BD3DRip.Half.OU.x264.AC3.Eng.3D-RuGroup.mkv
Формат : Matroska
Версия формата : Version 2
Размер файла : 6,92 Гбайт
Продолжительность : 53 м.
Общий поток : 18,6 Мбит/сек
Название фильма : World Natural Heritage: Hawaii 3D (2012) release 3D-RuGroup rip by StarStranger
Дата кодирования : UTC 2013-04-09 20:16:23
Программа кодирования : mkvmerge v3.4.0 ('Rapunzel') сборка от May 15 2010 09:38:20
Библиотека кодирования : libebml v0.8.0 + libmatroska v0.9.0
Видео
Идентификатор : 1
Формат : AVC
Формат/Информация : Advanced Video Codec
Профиль формата : High@L4.1
Параметр CABAC формата : Да
Параметр ReFrames формата : 4 кадра
Идентификатор кодека : V_MPEG4/ISO/AVC
Продолжительность : 53 м.
Битрейт : 17,6 Мбит/сек
Ширина : 1920 пикселей
Высота : 1080 пикселей
Соотношение сторон : 16:9
Режим частоты кадров : Постоянный
Частота кадров : 23,976 кадра/сек
Цветовое пространство : YUV
Субдискретизация насыщенности : 4:2:0
Битовая глубина : 8 бит
Тип развёртки : Прогрессивная
Бит/(Пиксели*Кадры) : 0.353
Размер потока : 6,54 Гбайт (95%)
Библиотека кодирования : x264 core 130 r2273 b3065e6
Настройки программы : cabac=1 / ref=4 / deblock=1:-3:-3 / analyse=0x3:0x133 / me=umh / subme=9 / psy=1 / psy_rd=1.00:0.15 / mixed_ref=1 / me_range=32 / chroma_me=1 / trellis=2 / 8x8dct=1 / cqm=0 / deadzone=21,11 / fast_pskip=0 / chroma_qp_offset=-3 / threads=12 / lookahead_threads=2 / sliced_threads=0 / nr=0 / decimate=1 / interlaced=0 / bluray_compat=0 / constrained_intra=0 / bframes=7 / b_pyramid=2 / b_adapt=2 / b_bias=0 / direct=3 / weightb=1 / open_gop=0 / weightp=2 / keyint=250 / keyint_min=23 / scenecut=40 / intra_refresh=0 / rc_lookahead=60 / rc=crf / mbtree=1 / crf=18.0 / qcomp=0.70 / qpmin=0 / qpmax=69 / qpstep=4 / vbv_maxrate=40000 / vbv_bufsize=30000 / crf_max=0.0 / nal_hrd=none / ip_ratio=1.40 / aq=1:0.90
Default : Нет
Forced : Нет
Аудио
Идентификатор : 2
Формат : AC-3
Формат/Информация : Audio Coding 3
Расширение режима : CM (complete main)
Параметр Endianness формата : Big
Идентификатор кодека : A_AC3
Продолжительность : 53 м.
Вид битрейта : Постоянный
Битрейт : 640 Кбит/сек
Каналы : 6 каналов
Расположение каналов : Front: L C R, Side: L R, LFE
Частота : 48,0 КГц
Битовая глубина : 16 бит
Метод сжатия : С потерями
Размер потока : 244 Мбайт (3%)
Язык : English
Default : Нет
Forced : Нет
Меню
00:00:00.000 : :01
00:07:35.580 : :02
00:16:48.049 : :03
00:25:39.246 : :04
00:33:47.150 : :05
00:38:44.197 : :06
00:42:05.732 : :07
00:49:17.872 : :08
Благодарности релизеру (20)

Торрент:

Статус:

Размер:

Зарегистрирован   [ 2013-04-10 00:37 ]

проверено

6.92 GB