Торренты   
 
 

 

Парк Юрского периода / Jurassic Park (Стивен Спилберг) [1993 г., BDRip, Full OverUnder]

Рейтинг 3D:
191 голосов
7.9
Рейтинг фильма:
185 голосов
8.2
 
Вы должны быть авторизированы,
чтобы ставить оценки


Парк Юрского периода / Jurassic Park
Год выпуска: 1993
Страна: США
Жанр: приключения, фантастика, семейный
Продолжительность: 02:06:49
Перевод: Профессиональный (многоголосый, закадровый)
Режиссер: Стивен Спилберг
В ролях: Сэм Нил, Лора Дерн, Джефф Голдблюм, Ричард Аттенборо, Джозеф Маццелло, Ариана Ричардс, Уэйн Найт, Боб Пек, Мартин Ферреро, Сэмюэл Л. Джексон
Описание: Экспансивный богач и профессор уговаривает пару ученых-палеонтологов приехать на остров у побережья Коста-Рики, где он устроил реликтовый парк. В парке этом водятся древние зверушки - динозавры, которые по его идее и должны стать гвоздем программы нового аттракциона.
До открытия остается несколько дней, а один из работников, пытаясь продать «рассаду» налево, нарушает систему охраны, что в комплексе с грозовым ливнем приводит к тому, что доисторические животные оказываются на воле, где действуют в соответствии со своими инстинктами.
Релиз группы: --Формат 3D: OverUnder BDRip, Full
Видео: AVC, High@L4.0, 1920х2080, 23,976 кадра/сек, 16,2 Мбит/сек
Аудио: Rus, AC-3, 6 каналов, 448 Кбит/сек, 48,0 КГц - Профессиональный (многоголосый, закадровый)- Пифагор
Аудио: Rus, AC-3, 6 каналов, 448 Кбит/сек, 48,0 КГц - Профессиональный (многоголосый, закадровый)- Киномания
Аудио: Ukr, AC-3, 6 каналов, 192 Кбит/сек, 48,0 КГц - Профессиональный (многоголосый, закадровый)- 1+1
Аудио: Rus, AC-3, 2 канала, 384 Кбит/сек, 48,0 КГц - Володарский
Аудио: Rus, AC-3, 6 каналов, 384 Кбит/сек, 48,0 КГц - Гаврилов
Аудио: Rus, DTS, 6 каналов, 1510 Кбит/сек, 48,0 КГц - Живов
Аудио: Eng, DTS, 6 каналов, 1510 Кбит/сек, 48,0 КГц

Скриншоты




Media Info

Общее
Уникальный идентификатор : 224991554410874816963483630064756840024 (0xA943CC14796D4968A189DAF749B3D658)
Полное имя : E:\STEREO\Jurassic Park_1080p_Rip by Dag13.mkv
Формат : Matroska
Версия формата : Version 2
Размер файла : 19,0 Гбайт
Продолжительность : 2 ч. 6 м.
Общий поток : 21,5 Мбит/сек
Дата кодирования : UTC 2013-04-16 12:54:23
Программа кодирования : mkvmerge v3.4.0 ('Rapunzel') сборка от May 15 2010 09:38:20
Библиотека кодирования : libebml v0.8.0 + libmatroska v0.9.0
Видео
Идентификатор : 1
Формат : AVC
Формат/Информация : Advanced Video Codec
Профиль формата : High@L5.0
Параметр CABAC формата : Да
Параметр ReFrames формата : 4 кадра
Идентификатор кодека : V_MPEG4/ISO/AVC
Продолжительность : 2 ч. 6 м.
Битрейт : 16,2 Мбит/сек
Ширина : 1920 пикселей
Высота : 2080 пикселей
Соотношение сторон : 0,923
Частота кадров : 23,976 кадра/сек
Цветовое пространство : YUV
Субдискретизация насыщенности : 4:2:0
Битовая глубина : 8 бит
Тип развёртки : Прогрессивная
Бит/(Пиксели*Кадры) : 0.169
Размер потока : 14,3 Гбайт (75%)
Заголовок : Rip by Dag13
Библиотека кодирования : x264 core 120 r2145 748fe16
Настройки программы : cabac=1 / ref=4 / deblock=1:-3:-3 / analyse=0x3:0x113 / me=umh / subme=9 / psy=1 / psy_rd=1.00:0.00 / mixed_ref=1 / me_range=16 / chroma_me=1 / trellis=2 / 8x8dct=1 / cqm=0 / deadzone=21,11 / fast_pskip=1 / chroma_qp_offset=-2 / threads=9 / sliced_threads=0 / nr=0 / decimate=1 / interlaced=0 / bluray_compat=0 / constrained_intra=0 / bframes=6 / b_pyramid=2 / b_adapt=2 / b_bias=0 / direct=3 / weightb=1 / open_gop=0 / weightp=2 / keyint=250 / keyint_min=23 / scenecut=40 / intra_refresh=0 / rc_lookahead=60 / rc=crf / mbtree=1 / crf=18.0 / qcomp=0.60 / qpmin=1 / qpmax=69 / qpstep=4 / ip_ratio=1.40 / aq=1:1.00
Язык : English
Default : Нет
Forced : Нет
Аудио #1
Идентификатор : 2
Формат : AC-3
Формат/Информация : Audio Coding 3
Расширение режима : CM (complete main)
Идентификатор кодека : A_AC3
Продолжительность : 2 ч. 6 м.
Вид битрейта : Постоянный
Битрейт : 448 Кбит/сек
Каналы : 6 каналов
Расположение каналов : Front: L C R, Side: L R, LFE
Частота : 48,0 КГц
Битовая глубина : 16 бит
Метод сжатия : С потерями
Размер потока : 406 Мбайт (2%)
Заголовок : Пифагор
Язык : Russian
Default : Да
Forced : Нет
Аудио #2
Идентификатор : 3
Формат : AC-3
Формат/Информация : Audio Coding 3
Расширение режима : CM (complete main)
Идентификатор кодека : A_AC3
Продолжительность : 2 ч. 6 м.
Вид битрейта : Постоянный
Битрейт : 448 Кбит/сек
Каналы : 6 каналов
Расположение каналов : Front: L C R, Side: L R, LFE
Частота : 48,0 КГц
Битовая глубина : 16 бит
Метод сжатия : С потерями
Размер потока : 406 Мбайт (2%)
Заголовок : Киномания
Язык : Russian
Default : Нет
Forced : Нет
Аудио #3
Идентификатор : 4
Формат : AC-3
Формат/Информация : Audio Coding 3
Расширение режима : CM (complete main)
Идентификатор кодека : A_AC3
Продолжительность : 2 ч. 6 м.
Вид битрейта : Постоянный
Битрейт : 192 Кбит/сек
Каналы : 6 каналов
Расположение каналов : Front: L C R, Side: L R, LFE
Частота : 48,0 КГц
Битовая глубина : 16 бит
Метод сжатия : С потерями
Размер потока : 174 Мбайт (1%)
Заголовок : 1+1
Язык : Ukrainian
Default : Нет
Forced : Нет
Аудио #4
Идентификатор : 5
Формат : AC-3
Формат/Информация : Audio Coding 3
Расширение режима : CM (complete main)
Идентификатор кодека : A_AC3
Продолжительность : 2 ч. 6 м.
Вид битрейта : Постоянный
Битрейт : 384 Кбит/сек
Каналы : 2 канала
Расположение каналов : Front: L R
Частота : 48,0 КГц
Битовая глубина : 16 бит
Метод сжатия : С потерями
Размер потока : 348 Мбайт (2%)
Заголовок : Володарский
Язык : Russian
Default : Нет
Forced : Нет
Аудио #5
Идентификатор : 6
Формат : AC-3
Формат/Информация : Audio Coding 3
Расширение режима : CM (complete main)
Идентификатор кодека : A_AC3
Продолжительность : 2 ч. 6 м.
Вид битрейта : Постоянный
Битрейт : 384 Кбит/сек
Каналы : 6 каналов
Расположение каналов : Front: L C R, Side: L R, LFE
Частота : 48,0 КГц
Битовая глубина : 16 бит
Метод сжатия : С потерями
Размер потока : 348 Мбайт (2%)
Заголовок : Гаврилов
Язык : Russian
Default : Нет
Forced : Нет
Аудио #6
Идентификатор : 7
Формат : DTS
Формат/Информация : Digital Theater Systems
Идентификатор кодека : A_DTS
Продолжительность : 2 ч. 6 м.
Вид битрейта : Постоянный
Битрейт : 1510 Кбит/сек
Каналы : 6 каналов
Расположение каналов : Front: L C R, Side: L R, LFE
Частота : 48,0 КГц
Битовая глубина : 24 бит
Метод сжатия : С потерями
Размер потока : 1,34 Гбайт (7%)
Заголовок : Живов
Язык : Russian
Default : Нет
Forced : Нет
Аудио #7
Идентификатор : 8
Формат : DTS
Формат/Информация : Digital Theater Systems
Идентификатор кодека : A_DTS
Продолжительность : 2 ч. 6 м.
Вид битрейта : Постоянный
Битрейт : 1510 Кбит/сек
Каналы : 6 каналов
Расположение каналов : Front: L C R, Side: L R, LFE
Частота : 48,0 КГц
Битовая глубина : 24 бит
Метод сжатия : С потерями
Размер потока : 1,34 Гбайт (7%)
Язык : English
Default : Нет
Forced : Нет
На встроенных ТВ-плейерах показывать НЕ будет!!!
Остальные раздачи этого фильма (5)
Благодарности релизеру (13)

Торрент:

Статус:

Размер:

Зарегистрирован   [ 2013-04-16 18:27 ]

проверено

19.03 GB

 
 Мнение о фильме (75)

1, 2, 3, 4  След.






Это конвертация???
 

Это конвертация???
Да, студийный конверт, но качество ни сколько не уступает, если даже не превосходит Титаник.
 

Dag13, Ясно, надо качать и смотреть!)
Только раздачи НЕТ!(
 

эпичнейший конверт эпичнейшего кино, чувствуется рука мастера!
стоит ли ждать горизонтальной пары гигов на 15 или качать с рутора 16-гиговую?
лично мне 3 звуковые дороги не нужны (а более трех так и подавно)
 

Вот это конвертация!!! Вот это 3D!!! Да еще и без черных полос! Скажу прямо - не ожидал!
Неужели теперь можно любой фильм переводить в 3D и получать отличный результат?
Или денег на качественную конвертацию может хватить только у Лукаса, Кэмерона и Спилберга? Сколько хороших фильмов хотелось бы увидеть в таком качественном 3D! Огромное спасибо релизеру!
 

Конвертация, на мой придирчивый взгляд, вышла достаточно средней, создалось впечатление, что оттридешивали "Парк" несколько разнокалиберных фирм. Есть очень хорошие кадры, с правильной глубиной, но часто попадаются кадры с тупым халтурным разнесением плоских планов.
В общем, этот конверт гораздо лучше, чем, например, наш мега-треш "Джунгли", но гораздо хуже, чем 3D "Титаник" (пока для меня это эталон конвертации).
 

Слушайте господа, реально крутой конверт, судя по скринам! благодарю!
 

да, Оливанос . не у каждого есть 10 лямов долларов только на конвертацию
 

эти лямы окупяться за апрель! спасибо за релиз
 

Дело не только в деньгах, Cineman, а в том, что теперь есть возможность КАЧЕСТВЕННО переделать фильм в 3D формат. Я еще не видел, как конвертировали первую серию "Звездных войн", надеюсь, будет не хуже, но уверен, что стоимость конвертации они легко отобьют повторным прокатом и выпуском BD.
Конечно, фильмы типа "Остина Пауэрса" конвертировать может только дебил, но есть много достойных картин, которые и я, и другие люди с удовольствием посмотрели бы в 3D и в кинотеатре, и дома.
P.S. Даешь "Кинг Конг" в 3D!!! И "Властелина" !!
 

Конверт и правда очень хорошего качества, не хуже чем у Кэмерона, а остальным режиссерам и их командам стоит поучиться у них, чтобы выдавать 3D такого же качества.
ps если кому то нужны одноголосые авторские переводы могу залить их на yandex.disk вечером?
 

Прекрасный объем , научились-таки нормально конверты делать ! Пускай теперь всю классику в 3D переделывают - я только за !))
 

Мда, сей конверт получше многих real-ов будет! Магёте, когда хочете, господа американцы.
 

Большое спасибо StarStranger!!!!! Хоть у меня все три части есть на лицензионных дисках, но думаю в 3D будет интереснее посмотреть. Фильм - то интересный.
 

Блин, обидно что я пересмотрел 3логию с месяц назад(
 

Неожиданно хорошее 3D для конвертации. Вылетов правда не заметил, а глубина достойная, как показалось особенно в начале.
 

3D - впечатляет, фильм отличный!
 

Сам фильм оценивать уже поздно, но по качеству спец эффектов для того времени, ну и ныне смотрится очень хорошо -на отлично, сюжет из всей серии в этой части самый лучший.
Что до конвертации, 4 с плюсом, хорошо чувствуется глубина, персонажи не картонные, но вот что заметно это отличие режесера снимающего для 3Д и 2Д, ракурсы не совсем подходящие. В общем конвертация меня очень порадовала, в коллекции однозначно.
 

Такой фильм отлично подойдет для коллекции!!!
 

Всё отлично,только жаль озвучка не чистая а наложка.
 

Страница 1 из 4

1, 2, 3, 4  След.