Торренты   
 
 

 

Парк Юрского периода / Jurassic Park (Стивен Спилберг) [1993 г., BDrip, Anamorph OverUnder]

Рейтинг 3D:
191 голосов
7.9
Рейтинг фильма:
185 голосов
8.2
 
Вы должны быть авторизированы,
чтобы ставить оценки



Парк Юрского периода / Jurassic Park
«The most phenomenal discovery of our time... becomes the greatest adventure of all time.»
Год выпуска: 1993
Страна: США
Жанр: приключения, фантастика, семейный
Продолжительность: 02:06:49
Перевод: Профессиональный (дублированный)
Режиссер: Стивен Спилберг
Сценарий: Майкл Крайтон, Дэвид Кепп
Продюсер: Кэтлин Кеннеди, Джералд Р. Молен, Лата Райан, ...
Оператор: Дин Канди
Композитор: Джон Уильямс
Художник: Рик Картер, Джон Белл, Уильям Джеймс Тигарден, ...
Монтаж: Майкл Кан
В ролях: Сэм Нил, Лора Дерн, Джефф Голдблюм, Ричард Аттенборо, Джозеф Маццелло, Ариана Ричардс, Уэйн Найт, Боб Пек, Мартин Ферреро, Сэмюэл Л. Джексон
Описание: Экспансивный богач и профессор уговаривает пару ученых-палеонтологов приехать на остров у побережья Коста-Рики, где он устроил реликтовый парк. В парке этом водятся древние зверушки — динозавры, которые по его идее и должны стать гвоздем программы нового аттракциона.
До открытия остается несколько дней, а один из работников, пытаясь продать «рассаду» налево, нарушает систему охраны, что в комплексе с грозовым ливнем приводит к тому, что доисторические животные оказываются на воле, где действуют в соответствии со своими инстинктами.--Релиз группы:

Проверено на встроенном плейере ТВ LG 42LW4500

бюджет $63 000 000
сборы в мире $952 438 932 (в России $2 366 805)
премьера (мир) 9 июня 1993
премьера (РФ) 4 апреля 2013, «UPI» 3D
релиз на Blu-Ray 3D 29 августа 2013 г. Двадцатый Век Фокс СНГ
--Качество: BDrip by StarStranger
Контейнер: MKV
Формат 3D: Anamorph OverUnder / Вертикальная анаморфная стереопара
Порядок ракурсов: левый ракурс первый
Видео кодек: x264
Аудио кодек: AC3
Видео: AVC, High@L4.1, 1920х1080, 23,976 кадра/сек, 9,5 Мбит/сек
Аудио:
Rus, AC-3, 6 каналов, 448 Кбит/сек, 48,0 КГц | Дубляж CEE
Rus, AC-3, 6 каналов, 448 Кбит/сек, 48,0 КГц | MVO Пифагор
Rus, AC-3, 6 каналов, 448 Кбит/сек, 48,0 КГц | MVO Киномания
Ukr, AC-3, 6 каналов, 192 Кбит/сек, 48,0 КГц | MVO 1+1
Eng, AC-3, 6 каналов, 640 Кбит/сек, 48,0 КГц
Субтитры: русские (форсированные, полные), английские

Скриншоты

Media Info

Код:
Общее
Уникальный идентификатор                 : 252782034187794375895322519984491035815 (0xBE2C0C85020422A988D7A81239897CA7)
Полное имя                               : H:\Source\Парк Юрского Периода\JurassicPark.3D.1993.BD3DRip.Half.OU.x264.AC3.3D-RuGroup.mkv
Формат                                   : Matroska
Версия формата                           : Version 2
Размер файла                             : 10,5 Гбайт
Продолжительность                        : 2 ч. 6 м.
Общий поток                              : 11,9 Мбит/сек
Название фильма                          : Jurassic Park 3D release 3D-RuGroup rip by StarStranger aka itsamna
Дата кодирования                         : UTC 2013-08-07 17:26:31
Программа кодирования                    : mkvmerge v3.4.0 ('Rapunzel') сборка от May 15 2010 09:38:20
Библиотека кодирования                   : libebml v0.8.0 + libmatroska v0.9.0
Видео
Идентификатор                            : 1
Формат                                   : AVC
Формат/Информация                        : Advanced Video Codec
Профиль формата                          : High@L4.1
Параметр CABAC формата                   : Да
Параметр ReFrames формата                : 4 кадра
Идентификатор кодека                     : V_MPEG4/ISO/AVC
Продолжительность                        : 2 ч. 6 м.
Битрейт                                  : 9494 Кбит/сек
Ширина                                   : 1920 пикселей
Высота                                   : 1080 пикселей
Соотношение сторон                       : 16:9
Режим частоты кадров                     : Постоянный
Частота кадров                           : 23,976 кадра/сек
Цветовое пространство                    : YUV
Субдискретизация насыщенности            : 4:2:0
Битовая глубина                          : 8 бит
Тип развёртки                            : Прогрессивная
Бит/(Пиксели*Кадры)                      : 0.191
Размер потока                            : 8,41 Гбайт (80%)
Библиотека кодирования                   : x264 core 130 r2273 b3065e6
Настройки программы                      : cabac=1 / ref=4 / deblock=1:-3:-3 / analyse=0x3:0x133 / me=umh / subme=10 / psy=1 / psy_rd=1.05:0.15 / mixed_ref=1 / me_range=32 / chroma_me=1 / trellis=2 / 8x8dct=1 / cqm=0 / deadzone=21,11 / fast_pskip=0 / chroma_qp_offset=-3 / threads=12 / lookahead_threads=2 / sliced_threads=0 / nr=0 / decimate=1 / interlaced=0 / bluray_compat=0 / constrained_intra=0 / bframes=7 / b_pyramid=2 / b_adapt=2 / b_bias=0 / direct=3 / weightb=1 / open_gop=0 / weightp=2 / keyint=250 / keyint_min=23 / scenecut=40 / intra_refresh=0 / rc_lookahead=60 / rc=crf / mbtree=1 / crf=18.0 / qcomp=0.70 / qpmin=0 / qpmax=69 / qpstep=4 / vbv_maxrate=40000 / vbv_bufsize=30000 / crf_max=0.0 / nal_hrd=none / ip_ratio=1.40 / aq=1:0.90
Default                                  : Да
Forced                                   : Нет
Аудио #1
Идентификатор                            : 2
Формат                                   : AC-3
Формат/Информация                        : Audio Coding 3
Расширение режима                        : CM (complete main)
Параметр Endianness формата              : Big
Идентификатор кодека                     : A_AC3
Продолжительность                        : 2 ч. 6 м.
Вид битрейта                             : Постоянный
Битрейт                                  : 448 Кбит/сек
Каналы                                   : 6 каналов
Расположение каналов                     : Front: L C R, Side: L R, LFE
Частота                                  : 48,0 КГц
Битовая глубина                          : 16 бит
Метод сжатия                             : С потерями
Размер потока                            : 406 Мбайт (4%)
Заголовок                                : Dub
Язык                                     : Russian
Default                                  : Нет
Forced                                   : Нет
Аудио #2
Идентификатор                            : 3
Формат                                   : AC-3
Формат/Информация                        : Audio Coding 3
Расширение режима                        : CM (complete main)
Параметр Endianness формата              : Big
Идентификатор кодека                     : A_AC3
Продолжительность                        : 2 ч. 6 м.
Вид битрейта                             : Постоянный
Битрейт                                  : 448 Кбит/сек
Каналы                                   : 6 каналов
Расположение каналов                     : Front: L C R, Side: L R, LFE
Частота                                  : 48,0 КГц
Битовая глубина                          : 16 бит
Метод сжатия                             : С потерями
Размер потока                            : 406 Мбайт (4%)
Заголовок                                : Пифагор
Язык                                     : Russian
Default                                  : Нет
Forced                                   : Нет
Аудио #3
Идентификатор                            : 4
Формат                                   : AC-3
Формат/Информация                        : Audio Coding 3
Расширение режима                        : CM (complete main)
Параметр Endianness формата              : Big
Идентификатор кодека                     : A_AC3
Продолжительность                        : 2 ч. 6 м.
Вид битрейта                             : Постоянный
Битрейт                                  : 448 Кбит/сек
Каналы                                   : 6 каналов
Расположение каналов                     : Front: L C R, Side: L R, LFE
Частота                                  : 48,0 КГц
Битовая глубина                          : 16 бит
Метод сжатия                             : С потерями
Размер потока                            : 406 Мбайт (4%)
Заголовок                                : Киномания
Язык                                     : Russian
Default                                  : Нет
Forced                                   : Нет
Аудио #4
Идентификатор                            : 5
Формат                                   : AC-3
Формат/Информация                        : Audio Coding 3
Расширение режима                        : CM (complete main)
Параметр Endianness формата              : Big
Идентификатор кодека                     : A_AC3
Продолжительность                        : 2 ч. 6 м.
Вид битрейта                             : Постоянный
Битрейт                                  : 192 Кбит/сек
Каналы                                   : 6 каналов
Расположение каналов                     : Front: L C R, Side: L R, LFE
Частота                                  : 48,0 КГц
Битовая глубина                          : 16 бит
Метод сжатия                             : С потерями
Размер потока                            : 174 Мбайт (2%)
Заголовок                                : 1+1
Язык                                     : Ukrainian
Default                                  : Нет
Forced                                   : Нет
Аудио #5
Идентификатор                            : 6
Формат                                   : AC-3
Формат/Информация                        : Audio Coding 3
Расширение режима                        : CM (complete main)
Параметр Endianness формата              : Big
Идентификатор кодека                     : A_AC3
Продолжительность                        : 2 ч. 6 м.
Вид битрейта                             : Постоянный
Битрейт                                  : 640 Кбит/сек
Каналы                                   : 6 каналов
Расположение каналов                     : Front: L C R, Side: L R, LFE
Частота                                  : 48,0 КГц
Битовая глубина                          : 16 бит
Метод сжатия                             : С потерями
Размер потока                            : 581 Мбайт (5%)
Язык                                     : English
Default                                  : Нет
Forced                                   : Нет
Текст #1
Идентификатор                            : 7
Формат                                   : UTF-8
Идентификатор кодека                     : S_TEXT/UTF8
Идентификатор кодека/Информация          : UTF-8 Plain Text
Заголовок                                : forced
Язык                                     : Russian
Default                                  : Нет
Forced                                   : Нет
Текст #2
Идентификатор                            : 8
Формат                                   : UTF-8
Идентификатор кодека                     : S_TEXT/UTF8
Идентификатор кодека/Информация          : UTF-8 Plain Text
Заголовок                                : full
Язык                                     : Russian
Default                                  : Нет
Forced                                   : Нет
Текст #3
Идентификатор                            : 9
Формат                                   : UTF-8
Идентификатор кодека                     : S_TEXT/UTF8
Идентификатор кодека/Информация          : UTF-8 Plain Text
Заголовок                                : full
Язык                                     : English
Default                                  : Нет
Forced                                   : Нет
Меню
00:00:00.000                             : :01
00:05:22.197                             : :02
00:10:17.116                             : :03
00:15:19.418                             : :04
00:19:35.591                             : :05
00:23:49.178                             : :06
00:31:42.526                             : :07
00:38:01.571                             : :08
00:40:29.052                             : :09
00:55:30.410                             : :10
01:01:45.619                             : :11
01:10:46.492                             : :12
01:20:03.507                             : :13
01:34:06.349                             : :14
01:39:47.690                             : :15
01:43:45.553                             : :16
01:47:59.223                             : :17
01:54:47.756                             : :18
01:58:06.788                             : :19
01:59:58.358                             : :20
07.08.2013 - Релиз обновлён -добавлена русская дублированная дорожка с BD3D CEE и пакет субтитров.
Желающие, скачайте заново торрент-файл.
Остальные раздачи этого фильма (5)
Благодарности релизеру (167)

Торрент:

Статус:

Размер:

Зарегистрирован   [ 2013-08-07 21:41 ]

проверено

10.55 GB

 
 Мнение о фильме (75)

Пред.  1, 2, 3, 4






vlaten,
нет, это ноу-хау
 

Неплохо!
 

кинушка супир
 

спасибо филь смотриться в 3д не плохо ожидания оправдались
 

Лучшая конвертация мною увиденная!!! скачал офигел!!! Ну,а фильм не требует рекомендации!)
 

Фильм сам по себе хорош, а в 3D - красава, только не совсем глубокое, есть гораздо лучше
 

классика, что сказать, да еще в таком 3д :)
 

приятный конверт смотрибельно
 

Всё хорошо спасибо
 

спасибо
 

Вылетов не ждите т.к. фильм изначально не был на них рассчитан, а так фильм и 3D на высоте, побольше бы таких.
 

спасибо за раздачу!
 

С удовольствием посмотрю , за авторские дороги отдельное спасибо .
 

Скажите пажалуста : BlueRay3D будет казать на телевизоре LG ?
 

Ребята встанте на раздачу ПЛИЗ
 

Страница 4 из 4

Пред.  1, 2, 3, 4